<?xml version="1.0" standalone="no"?>
<!DOCTYPE svg PUBLIC "-//W3C//DTD SVG 1.1//EN" "http://www.w3.org/Graphics/SVG/1.1/DTD/svg11.dtd">
<svg xmlns="http://www.w3.org/2000/svg">
<defs >
<font id="Teko" horiz-adv-x="450" ><font-face
    font-family="Teko SemiBold"
    units-per-em="1000"
    panose-1="2 0 0 0 0 0 0 0 0 0"
    ascent="958"
    descent="-475"
    alphabetic="0" />
<glyph unicode=" " glyph-name="space" horiz-adv-x="179" />
<glyph unicode="!" glyph-name="exclam" horiz-adv-x="263" d="M59 0V148H204V0H59ZM50 636H213L189 222H75L50 636Z" />
<glyph unicode="&quot;" glyph-name="quotedbl" horiz-adv-x="380" d="M215 636H342V386H215V636ZM39 636H165V386H39V636Z" />
<glyph unicode="#" glyph-name="numbersign" horiz-adv-x="609" d="M579 392H493L463 244H537V149H443L412 0H291L322 149H217L186 0H65L96 149H30V244H116L146 392H72V486H166L197 635H318L287 486H392L423 635H544L513 486H579V392ZM342 244L372 392H267L237 244H342Z" />
<glyph unicode="$" glyph-name="dollar" horiz-adv-x="442" d="M203 370H289Q353 370 381 343T409 261V111Q409 3 288 0V-81H153V0Q35 4 35 111V193H178V130Q178 105 205 105H239Q266 105 266 130V245Q266 258 260 263T239 269H151Q33 269 33 381V526Q33 633 153
636V718H288V636Q407 633 407 526V443H264V506Q264 531 237 531H203Q176 531 176 506V394Q176 381 182 376T203 370Z" />
<glyph unicode="%" glyph-name="percent" horiz-adv-x="801" d="M515 636H622L286 0H181L515 636ZM659 108V258Q659 280 636 280H618Q605 280 601 275T596 258V108Q596 96 600 92T618 87H636Q649 87 654 91T659 108ZM205 378V528Q205 540 201 545T183 550H164Q151
550 147 545T142 528V378Q142 366 146 362T164 357H183Q196 357 200 361T205 378ZM774 275V91Q774 0 671 0H583Q480 0 480 91V275Q480 366 583 366H671Q774 366 774 275ZM320 545V361Q320 270 218 270H129Q27 270 27 361V545Q27 636 129 636H218Q320 636 320 545Z"
/>
<glyph unicode="&amp;" glyph-name="ampersand" horiz-adv-x="563" d="M403 0H160Q33 0 33 111V186Q33 230 50 254Q67 278 136 319Q97 362 81 389T64 447V526Q64 636 191 636H300Q425 636 425 526V448Q425 395 404 366T331 305L312 293L422 170V243H535V111Q535
81 524 56L606 -36H462L428 1Q420 0 403 0ZM204 515V440Q204 412 234 379Q266 399 277 411T289 446V515Q289 529 283 534T262 540H230Q216 540 210 535T204 515ZM196 98H339L214 235L194 223Q169 208 169 178V123Q169 98 196 98Z" />
<glyph unicode="&apos;" glyph-name="quotesingle" horiz-adv-x="212" d="M39 636H173V386H39V636Z" />
<glyph unicode="(" glyph-name="parenleft" horiz-adv-x="309" d="M43 451Q43 620 109 710T299 800H310V682L300 681Q245 679 215 622T185 453V178Q185 -46 300 -51H310V-170H299Q175 -170 109 -80T43 180V451Z" />
<glyph unicode=")" glyph-name="parenright" horiz-adv-x="309" d="M266 180Q266 10 200 -80T9 -170H-2V-51H9Q123 -46 123 178V453Q123 678 9 681L-2 682V800H9Q134 800 200 710T266 451V180Z" />
<glyph unicode="*" glyph-name="asterisk" horiz-adv-x="364" d="M129 613V636H235V612Q235 576 226 540Q255 561 315 579L347 478Q284 459 253 457Q280 437 304 404L318 385L232 322L217 342Q196 370 183 406Q171 374 133 322L47 384Q86 436 112 457Q73 459 39
471L17 478L50 578Q108 560 139 540Q129 572 129 613Z" />
<glyph unicode="+" glyph-name="plus" horiz-adv-x="473" d="M455 370V264H304V111H169V264H18V370H169V523H304V370H455Z" />
<glyph unicode="," glyph-name="comma" horiz-adv-x="219" d="M37 148H182V68L82 -145H37V148Z" />
<glyph unicode="-" glyph-name="hyphen" horiz-adv-x="332" d="M31 250V348H301V250H31Z" />
<glyph unicode="." glyph-name="period" horiz-adv-x="219" d="M37 0V148H182V0H37Z" />
<glyph unicode="/" glyph-name="slash" horiz-adv-x="403" d="M283 701H404L110 -83H-12L283 701Z" />
<glyph unicode="0" glyph-name="zero" horiz-adv-x="459" d="M275 130V506Q275 531 248 531H211Q184 531 184 506V130Q184 105 211 105H248Q275 105 275 130ZM418 526V111Q418 0 292 0H168Q41 0 41 111V526Q41 636 168 636H292Q418 636 418 526Z" />
<glyph unicode="1" glyph-name="one" horiz-adv-x="289" d="M245 636V0H102V531H19V636H245Z" />
<glyph unicode="2" glyph-name="two" horiz-adv-x="415" d="M167 506V422H24V526Q24 636 150 636H258Q386 636 386 526V445Q386 399 373 366T329 292L201 105H388V0H27V97L203 333Q228 364 236 388T245 447V506Q245 531 218 531H193Q167 531 167 506Z" />
<glyph unicode="3" glyph-name="three" horiz-adv-x="431" d="M169 506V431H27V526Q27 636 153 636H264Q391 636 391 526V417Q391 343 346 324Q391 307 391 238V111Q391 0 264 0H153Q27 0 27 111V204H169V130Q169 105 196 105H223Q250 105 250 130V248Q250 262
244 267T223 273H145V372H223Q238 372 244 377T250 396V506Q250 531 223 531H196Q169 531 169 506Z" />
<glyph unicode="4" glyph-name="four" horiz-adv-x="452" d="M452 225V119H389V0H254V119H9V243L226 636H370L137 225H254V350H389V225H452Z" />
<glyph unicode="5" glyph-name="five" horiz-adv-x="445" d="M187 411H286Q413 411 413 301V111Q413 0 286 0H167Q40 0 40 111V215H183V130Q183 105 210 105H245Q272 105 272 130V281Q272 306 245 306H46V636H406V531H187V411Z" />
<glyph unicode="6" glyph-name="six" horiz-adv-x="451" d="M181 375H290Q417 375 417 265V111Q417 0 290 0H168Q41 0 41 111V526Q41 636 168 636H283Q410 636 410 526V440H270V506Q270 531 243 531H207Q181 531 181 506V375ZM277 130V249Q277 274 250 274H181V130Q181
105 207 105H250Q277 105 277 130Z" />
<glyph unicode="7" glyph-name="seven" horiz-adv-x="372" d="M367 636V556L182 0H35L215 524H9V636H367Z" />
<glyph unicode="8" glyph-name="eight" horiz-adv-x="457" d="M417 526V416Q417 342 372 323Q417 305 417 236V111Q417 0 291 0H166Q40 0 40 111V236Q40 305 84 323Q40 342 40 416V526Q40 636 166 636H291Q417 636 417 526ZM280 129V251Q280 265 274 270T253 276H204Q189
276 183 271T177 251V129Q177 115 183 110T204 104H253Q268 104 274 109T280 129ZM280 392V508Q280 521 274 526T253 532H204Q189 532 183 527T177 508V392Q177 379 183 374T204 368H253Q268 368 274 373T280 392Z" />
<glyph unicode="9" glyph-name="nine" d="M160 636H282Q409 636 409 526V111Q409 0 282 0H166Q39 0 39 111V193H178V130Q178 105 205 105H243Q269 105 269 130V251H160Q33 251 33 361V526Q33 636 160 636ZM200 349H269V506Q269 531 243 531H200Q173 531 173 506V374Q173
360 179 355T200 349Z" />
<glyph unicode=":" glyph-name="colon" horiz-adv-x="219" d="M37 383H182V112H37V383Z" />
<glyph unicode=";" glyph-name="semicolon" horiz-adv-x="219" d="M37 346V495H182V346H37ZM37 148H182V68L82 -145H37V148Z" />
<glyph unicode="&lt;" glyph-name="less" horiz-adv-x="490" d="M464 401L163 319L464 236V121L27 258V384L464 515V401Z" />
<glyph unicode="=" glyph-name="equal" horiz-adv-x="490" d="M27 163V271H464V163H27ZM27 363V471H464V363H27Z" />
<glyph unicode="&gt;" glyph-name="greater" horiz-adv-x="490" d="M327 319L27 401V515L464 384V258L27 121V236L327 319Z" />
<glyph unicode="?" glyph-name="question" horiz-adv-x="421" d="M147 636H267Q393 636 393 526V395Q393 285 267 285H265L259 222H140L127 367H224Q239 367 244 372T250 392V513Q250 527 245 532T224 538H189Q163 538 163 513V444H20V526Q20 636 147 636ZM125
0V148H270V0H125Z" />
<glyph unicode="@" glyph-name="at" horiz-adv-x="799" d="M365 320V195Q365 182 370 177T389 172H416Q443 172 443 201V313Q443 343 416 343H389Q376 343 371 338T365 320ZM242 331Q242 434 350 434H370Q431 434 445 383V434H560V171H604Q619 171 625 176T631
196V478Q631 503 604 503H206Q179 503 179 478V32Q179 19 185 14T206 8H561V-91H170Q54 -91 54 19V491Q54 602 170 602H638Q753 602 753 491V191Q753 80 637 80H448V138Q437 80 370 80H350Q242 80 242 183V331Z" />
<glyph unicode="A" glyph-name="A" horiz-adv-x="483" d="M335 0L313 115H168L146 0H5L149 636H331L479 0H335ZM188 219H292L240 488L188 219Z" />
<glyph unicode="B" glyph-name="B" horiz-adv-x="476" d="M295 394V513Q295 538 268 538H186V369H268Q295 369 295 394ZM295 123V247Q295 260 289 265T268 271H186V98H268Q295 98 295 123ZM45 636H309Q436 636 436 526V414Q436 340 391 321Q436 304 436 235V111Q436
0 309 0H45V636Z" />
<glyph unicode="C" glyph-name="C" d="M421 413H277V513Q277 538 251 538H210Q183 538 183 513V123Q183 109 189 104T210 98H251Q265 98 271 103T277 123V220H421V110Q421 0 294 0H166Q40 0 40 110V526Q40 636 166 636H294Q421 636 421 526V413Z" />
<glyph unicode="D" glyph-name="D" horiz-adv-x="485" d="M52 636H317Q444 636 444 526V111Q444 0 317 0H52V636ZM301 123V513Q301 538 274 538H195V98H274Q301 98 301 123Z" />
<glyph unicode="E" glyph-name="E" horiz-adv-x="409" d="M188 105H392V0H45V636H384V531H188V376H355V271H188V105Z" />
<glyph unicode="F" glyph-name="F" horiz-adv-x="399" d="M387 531H188V356H355V257H188V0H45V636H387V531Z" />
<glyph unicode="G" glyph-name="G" horiz-adv-x="456" d="M421 430H278V513Q278 538 251 538H210Q183 538 183 513V123Q183 109 189 104T210 98H251Q266 98 272 103T278 123V247H228V342H421V110Q421 0 295 0H166Q40 0 40 110V526Q40 636 166 636H295Q421 636
421 526V430Z" />
<glyph unicode="H" glyph-name="H" horiz-adv-x="500" d="M314 636H455V0H314V262H186V0H45V636H186V367H314V636Z" />
<glyph unicode="I" glyph-name="I" horiz-adv-x="238" d="M48 636H190V0H48V636Z" />
<glyph unicode="J" glyph-name="J" horiz-adv-x="410" d="M12 238H155V130Q155 105 182 105H199Q226 105 226 130V636H369V111Q369 0 243 0H138Q12 0 12 111V238Z" />
<glyph unicode="K" glyph-name="K" horiz-adv-x="475" d="M467 636L339 322L467 0H313L190 322L313 636H467ZM45 0V636H187V0H45Z" />
<glyph unicode="L" glyph-name="L" horiz-adv-x="371" d="M187 105H370V0H45V636H187V105Z" />
<glyph unicode="M" glyph-name="M" horiz-adv-x="612" d="M171 0H45V636H201L306 276L411 636H567V0H441V427L359 138H253L171 426V0Z" />
<glyph unicode="N" glyph-name="N" horiz-adv-x="486" d="M311 636H442V0H314L175 381V0H45V636H174L311 256V636Z" />
<glyph unicode="O" glyph-name="O" horiz-adv-x="469" d="M168 636H302Q428 636 428 526V111Q428 0 302 0H168Q41 0 41 111V526Q41 636 168 636ZM285 130V506Q285 531 259 531H211Q184 531 184 506V130Q184 105 211 105H259Q285 105 285 130Z" />
<glyph unicode="P" glyph-name="P" horiz-adv-x="456" d="M45 636H307Q433 636 433 526V333Q433 222 307 222H187V0H45V636ZM290 352V506Q290 531 264 531H187V327H264Q290 327 290 352Z" />
<glyph unicode="Q" glyph-name="Q" horiz-adv-x="469" d="M168 0Q41 0 41 111V526Q41 636 168 636H302Q428 636 428 526V111Q428 45 385 18L468 -77H309L243 0H168ZM184 506V130Q184 105 211 105H259Q285 105 285 130V506Q285 531 259 531H211Q184 531 184 506Z" />
<glyph unicode="R" glyph-name="R" horiz-adv-x="469" d="M187 238V0H45V636H307Q433 636 433 526V348Q433 260 353 242L465 0H312L212 238H187ZM187 531V339H264Q278 339 284 344T290 363V506Q290 531 264 531H187Z" />
<glyph unicode="S" glyph-name="S" horiz-adv-x="442" d="M266 130V245Q266 258 260 263T239 269H151Q33 269 33 381V526Q33 636 159 636H281Q407 636 407 526V443H264V506Q264 531 237 531H203Q176 531 176 506V394Q176 381 182 376T203 370H289Q353 370 381
343T409 261V111Q409 0 283 0H162Q35 0 35 111V193H178V130Q178 105 205 105H239Q266 105 266 130Z" />
<glyph unicode="T" glyph-name="T" horiz-adv-x="386" d="M381 636V531H264V0H121V531H5V636H381Z" />
<glyph unicode="U" glyph-name="U" horiz-adv-x="475" d="M288 636H431V111Q431 0 304 0H170Q44 0 44 111V636H187V130Q187 105 213 105H261Q288 105 288 130V636Z" />
<glyph unicode="V" glyph-name="V" horiz-adv-x="469" d="M314 636H462L322 0H147L6 636H155L234 164L314 636Z" />
<glyph unicode="W" glyph-name="W" horiz-adv-x="750" d="M598 636H740L617 0H446L375 416L304 0H133L10 636H158L218 161L302 636H447L531 161L598 636Z" />
<glyph unicode="X" glyph-name="X" horiz-adv-x="465" d="M309 324L463 0H303L229 202L154 0H2L149 324L7 636H168L229 449L290 636H444L309 324Z" />
<glyph unicode="Y" glyph-name="Y" horiz-adv-x="459" d="M305 0H162V206L2 636H148L233 337L312 636H458L305 205V0Z" />
<glyph unicode="Z" glyph-name="Z" horiz-adv-x="407" d="M391 636V531L164 105H385V0H16V105L243 531H28V636H391Z" />
<glyph unicode="[" glyph-name="bracketleft" horiz-adv-x="315" d="M285 683H190V-55H285V-160H47V788H285V683Z" />
<glyph unicode="\" glyph-name="backslash" horiz-adv-x="403" d="M-1 701H121L415 -83H293L-1 701Z" />
<glyph unicode="]" glyph-name="bracketright" horiz-adv-x="315" d="M261 788V-160H23V-55H118V683H23V788H261Z" />
<glyph unicode="^" glyph-name="asciicircum" horiz-adv-x="626" d="M204 670H391L517 294H372L297 549L223 294H78L204 670Z" />
<glyph unicode="_" glyph-name="underscore" horiz-adv-x="474" d="M0 -139V-41H474V-139H0Z" />
<glyph unicode="`" glyph-name="grave" horiz-adv-x="470" d="M247 670L338 527H226L104 670H247Z" />
<glyph unicode="a" glyph-name="a" horiz-adv-x="434" d="M255 495H392V0H253V49Q238 0 174 0H150Q33 0 33 111V384Q33 495 150 495H174Q241 495 255 439V495ZM200 105H223Q253 105 253 137V358Q253 390 223 390H200Q173 390 173 365V130Q173 105 200 105Z" />
<glyph unicode="b" glyph-name="b" horiz-adv-x="434" d="M259 495H284Q401 495 401 385V111Q401 0 284 0H259Q193 0 179 56V0H42V669H181V446Q196 495 259 495ZM261 130V365Q261 379 255 384T234 390H210Q181 390 181 358V137Q181 105 210 105H234Q261 105 261 130Z" />
<glyph unicode="c" glyph-name="c" horiz-adv-x="413" d="M389 317H253V365Q253 390 226 390H200Q173 390 173 365V130Q173 105 200 105H226Q253 105 253 130V178H389V111Q389 0 262 0H160Q33 0 33 111V384Q33 495 160 495H262Q389 495 389 384V317Z" />
<glyph unicode="d" glyph-name="d" horiz-adv-x="434" d="M253 669H392V0H255V56Q241 0 174 0H150Q33 0 33 111V385Q33 495 150 495H174Q238 495 253 446V669ZM200 105H223Q253 105 253 137V358Q253 390 223 390H200Q185 390 179 385T173 365V130Q173 105 200 105Z" />
<glyph unicode="e" glyph-name="e" horiz-adv-x="429" d="M161 495H274Q401 495 401 384V209H168V124Q168 111 174 106T195 100H240Q254 100 260 106T266 126V159H400V111Q400 0 273 0H161Q35 0 35 111V384Q35 495 161 495ZM168 291H267V371Q267 384 261 389T241
395H195Q180 395 174 390T168 371V291Z" />
<glyph unicode="f" glyph-name="f" horiz-adv-x="279" d="M274 566H225Q198 566 198 541V495H274V390H198V0H59V390H9V495H59V559Q59 669 185 669H274V566Z" />
<glyph unicode="g" glyph-name="g" horiz-adv-x="434" d="M255 495H392V-22Q392 -133 266 -133H54V-31H226Q253 -31 253 -6V70Q238 21 174 21H150Q33 21 33 132V384Q33 495 150 495H174Q241 495 255 439V495ZM200 126H223Q253 126 253 158V358Q253 390 223 390H200Q173
390 173 365V151Q173 126 200 126Z" />
<glyph unicode="h" glyph-name="h" horiz-adv-x="439" d="M259 495H284Q401 495 401 384V0H261V365Q261 390 234 390H210Q181 390 181 358V0H42V669H181V446Q196 495 259 495Z" />
<glyph unicode="i" glyph-name="i" horiz-adv-x="223" d="M39 561V669H184V561H39ZM181 0H42V495H181V0Z" />
<glyph unicode="j" glyph-name="j" horiz-adv-x="223" d="M39 561V669H184V561H39ZM42 -6V495H181V-22Q181 -133 55 -133H-13V-31H15Q42 -31 42 -6Z" />
<glyph unicode="k" glyph-name="k" horiz-adv-x="430" d="M432 495L323 254L432 0H286L182 254L287 495H432ZM42 0V669H181V0H42Z" />
<glyph unicode="l" glyph-name="l" horiz-adv-x="223" d="M181 0H42V669H181V0Z" />
<glyph unicode="m" glyph-name="m" horiz-adv-x="657" d="M479 495H503Q620 495 620 384V0H481V365Q481 390 454 390H430Q401 390 401 358V0H261V365Q261 390 234 390H210Q181 390 181 358V0H42V495H179V439Q193 495 259 495H284Q366 495 391 439Q398 465 421
480T479 495Z" />
<glyph unicode="n" glyph-name="n" horiz-adv-x="439" d="M259 495H284Q401 495 401 384V0H261V365Q261 390 234 390H210Q181 390 181 358V0H42V495H179V439Q193 495 259 495Z" />
<glyph unicode="o" glyph-name="o" horiz-adv-x="439" d="M160 495H279Q345 495 373 467T402 384V111Q402 57 374 29T279 0H160Q94 0 66 28T37 111V384Q37 438 65 466T160 495ZM265 125V370Q265 395 238 395H201Q174 395 174 370V125Q174 100 201 100H238Q265
100 265 125Z" />
<glyph unicode="p" glyph-name="p" horiz-adv-x="434" d="M259 495H284Q401 495 401 384V111Q401 0 284 0H259Q196 0 181 49V-133H42V495H179V439Q193 495 259 495ZM261 130V365Q261 390 234 390H210Q181 390 181 358V137Q181 105 210 105H234Q261 105 261 130Z" />
<glyph unicode="q" glyph-name="q" horiz-adv-x="434" d="M255 495H392V-133H253V49Q238 0 174 0H150Q33 0 33 111V384Q33 495 150 495H174Q241 495 255 439V495ZM200 105H223Q253 105 253 137V358Q253 390 223 390H200Q173 390 173 365V130Q173 105 200 105Z" />
<glyph unicode="r" glyph-name="r" horiz-adv-x="298" d="M276 498H293V377H244Q181 377 181 307V0H42V495H179V424Q187 457 212 477T276 498Z" />
<glyph unicode="s" glyph-name="s" horiz-adv-x="401" d="M237 119V175Q237 188 231 193T210 199H153Q28 199 28 309V384Q28 495 155 495H240Q367 495 367 384V340H233V376Q233 389 227 394T206 400H191Q176 400 170 395T164 376V316Q164 303 170 298T191 292H248Q373
292 373 183V111Q373 0 246 0H157Q31 0 31 111V154H167V119Q167 94 193 94H210Q237 94 237 119Z" />
<glyph unicode="t" glyph-name="t" horiz-adv-x="271" d="M261 390H196V131Q196 107 223 107H261V0H183Q57 0 57 111V390H5V495H57V587H196V495H261V390Z" />
<glyph unicode="u" glyph-name="u" horiz-adv-x="439" d="M258 495H397V0H260V56Q246 0 179 0H155Q38 0 38 111V495H178V130Q178 105 205 105H228Q258 105 258 137V495Z" />
<glyph unicode="v" glyph-name="v" horiz-adv-x="405" d="M141 495L203 140L265 495H404L290 0H115L2 495H141Z" />
<glyph unicode="w" glyph-name="w" horiz-adv-x="627" d="M493 495H622L522 0H372L312 323L251 0H102L5 495H135L183 143L247 495H380L439 145L493 495Z" />
<glyph unicode="x" glyph-name="x" horiz-adv-x="407" d="M283 255L406 0H263L202 156L144 0H6L122 253L5 495H151L202 348L252 495H393L283 255Z" />
<glyph unicode="y" glyph-name="y" horiz-adv-x="418" d="M137 -133H62V-29H124Q147 -29 160 -22T181 8L186 28H127L3 495H148L214 151L274 495H415L298 -12Q281 -72 244 -102T137 -133Z" />
<glyph unicode="z" glyph-name="z" horiz-adv-x="354" d="M342 101V0H12V101L187 394H24V495H335V394L158 101H342Z" />
<glyph unicode="{" glyph-name="braceleft" horiz-adv-x="310" d="M240 665V439Q240 331 162 315Q198 312 219 282T240 200V-36Q240 -61 267 -61H300V-159H220Q97 -159 97 -42V175Q97 222 80 244T23 266H13V364H23Q62 364 79 386T97 456V671Q97 788 220 788H300V690H267Q240
690 240 665Z" />
<glyph unicode="|" glyph-name="bar" horiz-adv-x="240" d="M52 799H181V-165H52V799Z" />
<glyph unicode="}" glyph-name="braceright" horiz-adv-x="310" d="M70 439V665Q70 690 42 690H9V788H89Q213 788 213 671V456Q213 407 230 386T286 364H297V266H286Q247 266 230 244T213 175V-42Q213 -159 89 -159H9V-61H42Q70 -61 70 -36V200Q70 252 90 282T147
315Q70 330 70 439Z" />
<glyph unicode="~" glyph-name="asciitilde" horiz-adv-x="645" d="M404 208Q362 208 313 247T243 286T217 279T211 254V208H83V285Q83 333 106 355T184 378H239Q268 378 294 366T336 339T370 312T405 300T426 307T432 333V378H560V300Q560 253 537 231T459 208H404Z" />
<glyph unicode="&#xa0;" glyph-name="uni00A0" horiz-adv-x="179" />
<glyph unicode="&#xa1;" glyph-name="exclamdown" horiz-adv-x="263" d="M213 -141H50L75 273H189L213 -141ZM59 347V495H204V347H59Z" />
<glyph unicode="&#xa2;" glyph-name="cent" horiz-adv-x="413" d="M389 317H253V365Q253 390 226 390H200Q173 390 173 365V130Q173 105 200 105H226Q253 105 253 130V178H389V111Q389 8 281 1V-79H146V0Q33 7 33 111V384Q33 488 146 495V574H281V494Q389 487
389 384V317Z" />
<glyph unicode="&#xa3;" glyph-name="sterling" horiz-adv-x="461" d="M443 105V0H25V99Q53 102 61 121T70 186V253H25V351H70V526Q70 636 197 636H312Q439 636 439 526V433H296V506Q296 531 269 531H240Q213 531 213 506V351H355V253H213V181Q213 124 187 105H443Z" />
<glyph unicode="&#xa4;" glyph-name="currency" horiz-adv-x="553" d="M315 504L346 503L414 571L499 485L451 437Q466 406 466 350V249Q466 202 455 172L499 128L414 43L358 99Q338 96 315 96H232Q203 96 184 100L126 43L42 128L90 177Q81 208 81 249V350Q81
400 94 433L42 485L126 571L196 502Q218 504 232 504H315ZM258 190H287Q323 190 336 201T350 252V346Q350 385 336 397T287 410H258Q223 410 209 398T195 346V252Q195 213 208 202T258 190Z" />
<glyph unicode="&#xa5;" glyph-name="yen" horiz-adv-x="474" d="M443 360V269H334L319 226H443V135H312V0H169V135H35V226H161L145 269H35V360H111L8 636H154L239 342L321 636H466L367 360H443Z" />
<glyph unicode="&#xa6;" glyph-name="brokenbar" horiz-adv-x="240" d="M188 377H45V729H188V377ZM45 258H188V-95H45V258Z" />
<glyph unicode="&#xa7;" glyph-name="section" horiz-adv-x="494" d="M437 520H297V549Q297 563 291 568T270 574H242Q227 574 221 569T215 549V493Q215 480 221 475T242 469H305Q432 469 432 358V284Q432 219 401 193Q419 166 419 125V47Q419 -63 292 -63H184Q57
-63 57 47V85H197V56Q197 43 203 38T224 32H252Q267 32 273 37T279 56V112Q279 137 252 137H189Q63 137 63 247V312Q63 381 98 407Q75 433 75 481V558Q75 669 202 669H310Q437 669 437 558V520ZM299 260V346Q299 371 272 371H222Q195 371 195 346V260Q195 246 201
241T222 235H272Q287 235 293 240T299 260Z" />
<glyph unicode="&#xa8;" glyph-name="dieresis" horiz-adv-x="470" d="M279 542V658H412V542H279ZM58 542V658H191V542H58Z" />
<glyph unicode="&#xa9;" glyph-name="copyright" horiz-adv-x="745" d="M411 254V285H514V237Q514 154 419 154H333Q238 154 238 237V404Q238 487 333 487H419Q514 487 514 404V356H411V387Q411 406 390 406H362Q341 406 341 387V254Q341 243 345 239T362 234H390Q411
234 411 254ZM302 87H449Q532 87 568 130T604 281V352Q604 461 568 505T449 549H302Q218 549 183 505T147 352V281Q147 173 182 130T302 87ZM715 339V294Q715 149 661 75T472 0H278Q145 0 91 74T36 294V339Q36 485 90 560T278 636H472Q605 636 660 561T715 339Z"
/>
<glyph unicode="&#xaa;" glyph-name="ordfeminine" horiz-adv-x="307" d="M191 636H277V286H189V316Q178 286 140 286H108Q25 286 25 365V558Q25 636 108 636H138Q183 636 191 598V636ZM132 359H168Q189 359 189 382V542Q189 565 168 565H132Q113 565 113 547V377Q113
359 132 359Z" />
<glyph unicode="&#xab;" glyph-name="guillemotleft" horiz-adv-x="497" d="M345 99L232 253L345 405H480L367 253L480 99H345ZM137 99L23 253L137 405H271L159 253L271 99H137Z" />
<glyph unicode="&#xac;" glyph-name="logicalnot" horiz-adv-x="527" d="M473 410V124H374V268H44V410H473Z" />
<glyph unicode="&#xad;" glyph-name="uni00AD" horiz-adv-x="332" d="M31 250V348H301V250H31Z" />
<glyph unicode="&#xae;" glyph-name="registered" horiz-adv-x="454" d="M244 555V593Q244 600 237 600H213V548H237Q244 548 244 555ZM164 635H250Q293 635 293 598V549Q293 520 268 513L305 439H252L220 511H213V439H164V635ZM185 407H269Q318 407 338 430T358
515V556Q358 618 338 642T269 666H185Q137 666 117 642T96 556V515Q96 453 116 430T185 407ZM422 548V523Q422 440 391 397T282 354H171Q94 354 63 396T32 523V548Q32 632 63 675T171 719H282Q359 719 390 676T422 548Z" />
<glyph unicode="&#xaf;" glyph-name="overscore" horiz-adv-x="470" d="M63 554V645H406V554H63Z" />
<glyph unicode="&#xb0;" glyph-name="degree" horiz-adv-x="446" d="M269 433V521Q269 546 242 546H202Q175 546 175 521V433Q175 408 202 408H242Q269 408 269 433ZM398 526V428Q398 318 276 318H168Q45 318 45 428V526Q45 636 168 636H276Q398 636 398 526Z" />
<glyph unicode="&#xb1;" glyph-name="plusminus" horiz-adv-x="490" d="M313 467H464V364H313V288H178V364H27V467H178V544H313V467ZM27 151V257H464V151H27Z" />
<glyph unicode="&#xb2;" glyph-name="twosuperior" horiz-adv-x="255" d="M102 562V511H13V576Q13 636 83 636H163Q232 636 232 576V537Q232 478 197 440L122 351H233V286H15V344L125 469Q144 491 144 532V562Q144 575 130 575H117Q102 575 102 562Z" />
<glyph unicode="&#xb3;" glyph-name="threesuperior" horiz-adv-x="257" d="M103 562V524H14V576Q14 636 84 636H165Q234 636 234 576V513Q234 472 210 462Q234 452 234 414V347Q234 286 165 286H84Q14 286 14 347V399H103V361Q103 347 117 347H132Q147 347 147
361V419Q147 432 132 432H97V490H132Q147 490 147 503V562Q147 575 132 575H117Q103 575 103 562Z" />
<glyph unicode="&#xb4;" glyph-name="acute" horiz-adv-x="470" d="M117 527L208 670H352L229 527H117Z" />
<glyph unicode="&#xb5;" glyph-name="uni00B5" horiz-adv-x="444" d="M260 495H399V0H262V56Q248 0 181 0H180V-133H40V495H180V130Q180 105 207 105H230Q260 105 260 137V495Z" />
<glyph unicode="&#xb6;" glyph-name="paragraph" horiz-adv-x="545" d="M376 636H491V-133H376V636ZM314 636V-133H199V216H162Q35 216 35 327V526Q35 636 162 636H314Z" />
<glyph unicode="&#xb7;" glyph-name="middot" horiz-adv-x="251" d="M43 258V400H188V258H43Z" />
<glyph unicode="&#xb8;" glyph-name="cedilla" horiz-adv-x="470" d="M202 -108V-48H333V-119Q333 -232 204 -232H126V-135H174Q202 -135 202 -108Z" />
<glyph unicode="&#xb9;" glyph-name="onesuperior" horiz-adv-x="190" d="M147 636V286H56V575H10V636H147Z" />
<glyph unicode="&#xba;" glyph-name="ordmasculine" horiz-adv-x="300" d="M112 636H187Q274 636 274 558V365Q274 286 187 286H112Q25 286 25 365V558Q25 636 112 636ZM186 364V557Q186 575 167 575H132Q113 575 113 557V364Q113 347 132 347H167Q186 347 186 364Z" />
<glyph unicode="&#xbb;" glyph-name="guillemotright" horiz-adv-x="497" d="M480 253L366 99H232L344 253L232 405H366L480 253ZM271 253L158 99H23L136 253L23 405H158L271 253Z" />
<glyph unicode="&#xbf;" glyph-name="questiondown" horiz-adv-x="421" d="M250 51H393V-31Q393 -141 266 -141H146Q20 -141 20 -31V100Q20 210 146 210H148L154 273H273L286 128H189Q174 128 169 123T163 103V-18Q163 -32 168 -37T189 -43H224Q250 -43 250 -18V51ZM288
495V347H143V495H288Z" />
<glyph unicode="&#xc0;" glyph-name="Agrave" horiz-adv-x="483" d="M335 0L313 115H168L146 0H5L149 636H331L479 0H335ZM188 219H292L240 488L188 219ZM289 668H177L55 811H198L289 668Z" />
<glyph unicode="&#xc1;" glyph-name="Aacute" horiz-adv-x="483" d="M335 0L313 115H168L146 0H5L149 636H331L479 0H335ZM188 219H292L240 488L188 219ZM421 811L298 668H186L277 811H421Z" />
<glyph unicode="&#xc2;" glyph-name="Acircumflex" horiz-adv-x="483" d="M335 0L313 115H168L146 0H5L149 636H331L479 0H335ZM188 219H292L240 488L188 219ZM240 742L187 668H54L173 811H307L425 668H293L240 742Z" />
<glyph unicode="&#xc3;" glyph-name="Atilde" horiz-adv-x="483" d="M335 0L313 115H168L146 0H5L149 636H331L479 0H335ZM188 219H292L240 488L188 219ZM170 694V669H57V711Q57 755 77 778T148 801H163Q193 801 230 778T275 754Q294 754 294 776V801H407V754Q407
711 387 690T315 669H301Q271 669 233 692T187 716Q170 716 170 694Z" />
<glyph unicode="&#xc4;" glyph-name="Adieresis" horiz-adv-x="483" d="M335 0L313 115H168L146 0H5L149 636H331L479 0H335ZM188 219H292L240 488L188 219ZM196 785V669H63V785H196ZM417 785V669H284V785H417Z" />
<glyph unicode="&#xc5;" glyph-name="Aring" horiz-adv-x="483" d="M335 0L313 115H168L146 0H5L149 636H331L479 0H335ZM188 219H292L240 488L188 219ZM279 668H201Q110 668 110 750V766Q110 848 201 848H279Q370 848 370 766V750Q370 668 279 668ZM200 763V752Q200
740 204 736T222 731H258Q271 731 276 735T281 752V763Q281 775 276 780T258 785H222Q209 785 205 780T200 763Z" />
<glyph unicode="&#xc6;" glyph-name="AE" horiz-adv-x="697" d="M474 105H678V0H338V128H192L145 0H4L251 636H670V531H474V376H641V271H474V105ZM338 230V527L229 230H338Z" />
<glyph unicode="&#xc7;" glyph-name="Ccedilla" d="M421 413H277V513Q277 538 251 538H210Q183 538 183 513V123Q183 109 189 104T210 98H251Q265 98 271 103T277 123V220H421V110Q421 0 294 0H166Q40 0 40 110V526Q40 636 166 636H294Q421 636 421 526V413ZM164
-108V-48H295V-119Q295 -232 166 -232H88V-135H136Q164 -135 164 -108Z" />
<glyph unicode="&#xc8;" glyph-name="Egrave" horiz-adv-x="409" d="M188 105H392V0H45V636H384V531H188V376H355V271H188V105ZM272 668H160L38 811H181L272 668Z" />
<glyph unicode="&#xc9;" glyph-name="Eacute" horiz-adv-x="409" d="M188 271V105H392V0H45V636H384V531H188V376H355V271H188ZM392 811L269 668H157L248 811H392Z" />
<glyph unicode="&#xca;" glyph-name="Ecircumflex" horiz-adv-x="409" d="M188 271V105H392V0H45V636H384V531H188V376H355V271H188ZM217 742L164 668H31L150 811H284L402 668H270L217 742Z" />
<glyph unicode="&#xcb;" glyph-name="Edieresis" horiz-adv-x="445" d="M188 105H392V0H45V636H384V531H188V376H355V271H188V105ZM170 785V669H37V785H170ZM391 785V669H258V785H391Z" />
<glyph unicode="&#xcc;" glyph-name="Igrave" horiz-adv-x="238" d="M83 811L174 668H62L-60 811H83ZM48 636H190V0H48V636Z" />
<glyph unicode="&#xcd;" glyph-name="Iacute" horiz-adv-x="238" d="M61 668L152 811H296L173 668H61ZM48 636H190V0H48V636Z" />
<glyph unicode="&#xce;" glyph-name="Icircumflex" horiz-adv-x="238" d="M-67 668L52 811H186L304 668H172L119 742L66 668H-67ZM48 636H190V0H48V636Z" />
<glyph unicode="&#xcf;" glyph-name="Idieresis" horiz-adv-x="238" d="M48 636H190V0H48V636ZM163 669V785H296V669H163ZM-58 669V785H75V669H-58Z" />
<glyph unicode="&#xd0;" glyph-name="Eth" horiz-adv-x="483" d="M52 636H317Q444 636 444 526V111Q444 0 317 0H52V273H-2V371H52V636ZM301 123V513Q301 538 274 538H195V371H257V273H195V98H274Q301 98 301 123Z" />
<glyph unicode="&#xd1;" glyph-name="Ntilde" horiz-adv-x="486" d="M314 669Q284 669 246 692T200 716Q183 716 183 694V669H70V711Q70 755 90 778T161 801H176Q206 801 243 778T288 754Q307 754 307 776V801H420V754Q420 711 400 690T328 669H314ZM311 636H442V0H314L175
381V0H45V636H174L311 256V636Z" />
<glyph unicode="&#xd2;" glyph-name="Ograve" horiz-adv-x="469" d="M168 636H302Q428 636 428 526V111Q428 0 302 0H168Q41 0 41 111V526Q41 636 168 636ZM285 130V506Q285 531 259 531H211Q184 531 184 506V130Q184 105 211 105H259Q285 105 285 130ZM285 668H173L51
811H194L285 668Z" />
<glyph unicode="&#xd3;" glyph-name="Oacute" horiz-adv-x="469" d="M168 636H302Q428 636 428 526V111Q428 0 302 0H168Q41 0 41 111V526Q41 636 168 636ZM285 130V506Q285 531 259 531H211Q184 531 184 506V130Q184 105 211 105H259Q285 105 285 130ZM414 811L291
668H179L270 811H414Z" />
<glyph unicode="&#xd4;" glyph-name="Ocircumflex" horiz-adv-x="469" d="M168 636H302Q428 636 428 526V111Q428 0 302 0H168Q41 0 41 111V526Q41 636 168 636ZM285 130V506Q285 531 259 531H211Q184 531 184 506V130Q184 105 211 105H259Q285 105 285 130ZM233
742L180 668H47L166 811H300L418 668H286L233 742Z" />
<glyph unicode="&#xd5;" glyph-name="Otilde" horiz-adv-x="469" d="M168 636H302Q428 636 428 526V111Q428 0 302 0H168Q41 0 41 111V526Q41 636 168 636ZM285 130V506Q285 531 259 531H211Q184 531 184 506V130Q184 105 211 105H259Q285 105 285 130ZM171 694V669H58V711Q58
755 78 778T149 801H164Q194 801 231 778T276 754Q295 754 295 776V801H408V754Q408 711 388 690T316 669H302Q272 669 234 692T188 716Q171 716 171 694Z" />
<glyph unicode="&#xd6;" glyph-name="Odieresis" horiz-adv-x="458" d="M168 636H302Q428 636 428 526V111Q428 0 302 0H168Q41 0 41 111V526Q41 636 168 636ZM285 130V506Q285 531 259 531H211Q184 531 184 506V130Q184 105 211 105H259Q285 105 285 130ZM191
785V669H58V785H191ZM412 785V669H279V785H412Z" />
<glyph unicode="&#xd7;" glyph-name="multiply" horiz-adv-x="442" d="M421 429L303 311L421 193L340 111L222 230L103 111L22 193L140 311L22 429L103 511L222 393L340 511L421 429Z" />
<glyph unicode="&#xd8;" glyph-name="Oslash" horiz-adv-x="472" d="M430 526V111Q430 0 303 0H169Q140 0 117 6L104 -20H38L66 36Q42 61 42 111V526Q42 636 169 636H303Q338 636 360 629L373 656H439L410 597Q430 570 430 526ZM178 514V263L294 497V514Q294 539
267 539H205Q178 539 178 514ZM294 122V363L178 129V122Q178 97 205 97H267Q294 97 294 122Z" />
<glyph unicode="&#xd9;" glyph-name="Ugrave" horiz-adv-x="475" d="M288 636H431V111Q431 0 304 0H170Q44 0 44 111V636H187V130Q187 105 213 105H261Q288 105 288 130V636ZM292 668H180L58 811H201L292 668Z" />
<glyph unicode="&#xda;" glyph-name="Uacute" horiz-adv-x="475" d="M288 636H431V111Q431 0 304 0H170Q44 0 44 111V636H187V130Q187 105 213 105H261Q288 105 288 130V636ZM411 811L288 668H176L267 811H411Z" />
<glyph unicode="&#xdb;" glyph-name="Ucircumflex" horiz-adv-x="475" d="M288 636H431V111Q431 0 304 0H170Q44 0 44 111V636H187V130Q187 105 213 105H261Q288 105 288 130V636ZM237 742L184 668H51L170 811H304L422 668H290L237 742Z" />
<glyph unicode="&#xdc;" glyph-name="Udieresis" horiz-adv-x="475" d="M288 636H431V111Q431 0 304 0H170Q44 0 44 111V636H187V130Q187 105 213 105H261Q288 105 288 130V636ZM193 785V669H60V785H193ZM414 785V669H281V785H414Z" />
<glyph unicode="&#xdd;" glyph-name="Yacute" horiz-adv-x="459" d="M305 0H162V206L2 636H148L233 337L312 636H458L305 205V0ZM405 811L282 668H170L261 811H405Z" />
<glyph unicode="&#xde;" glyph-name="Thorn" horiz-adv-x="477" d="M191 517H303Q430 517 430 407V229Q430 118 303 118H191V0H48V636H191V517ZM287 244V391Q287 416 260 416H191V220H260Q275 220 281 225T287 244Z" />
<glyph unicode="&#xdf;" glyph-name="germandbls" horiz-adv-x="601" d="M239 159H378V123Q378 109 383 104T401 98H416Q431 98 437 103T443 123V178Q443 192 437 197T416 203H361Q296 203 269 231T242 313V348Q242 400 270 425T360 450Q376 450 381 455T387 473V495Q387
509 382 514T363 520H215Q188 520 188 495V0H45V516Q45 570 72 598T165 626H416Q537 626 537 521V457Q537 406 514 385T427 364H405Q390 364 384 359T378 340V321Q378 308 384 303T405 297H456Q582 297 582 186V111Q582 56 555 28T463 0H360Q239 1 239 111V159Z"
/>
<glyph unicode="&#xe0;" glyph-name="agrave" horiz-adv-x="434" d="M255 495H392V0H253V49Q238 0 174 0H150Q33 0 33 111V384Q33 495 150 495H174Q241 495 255 439V495ZM200 105H223Q253 105 253 137V358Q253 390 223 390H200Q173 390 173 365V130Q173 105 200
105ZM300 527H188L66 670H209L300 527Z" />
<glyph unicode="&#xe1;" glyph-name="aacute" horiz-adv-x="434" d="M255 495H392V0H253V49Q238 0 174 0H150Q33 0 33 111V384Q33 495 150 495H174Q241 495 255 439V495ZM200 105H223Q253 105 253 137V358Q253 390 223 390H200Q173 390 173 365V130Q173 105 200
105ZM400 670L277 527H165L256 670H400Z" />
<glyph unicode="&#xe2;" glyph-name="acircumflex" horiz-adv-x="434" d="M255 495H392V0H253V49Q238 0 174 0H150Q33 0 33 111V384Q33 495 150 495H174Q241 495 255 439V495ZM200 105H223Q253 105 253 137V358Q253 390 223 390H200Q173 390 173 365V130Q173 105
200 105ZM219 601L166 527H33L152 670H286L404 527H272L219 601Z" />
<glyph unicode="&#xe3;" glyph-name="atilde" horiz-adv-x="434" d="M255 495H392V0H253V49Q238 0 174 0H150Q33 0 33 111V384Q33 495 150 495H174Q241 495 255 439V495ZM200 105H223Q253 105 253 137V358Q253 390 223 390H200Q173 390 173 365V130Q173 105 200
105ZM153 558V533H40V575Q40 619 60 642T131 665H146Q176 665 213 642T258 618Q277 618 277 640V665H390V618Q390 575 370 554T298 533H284Q254 533 216 556T170 580Q153 580 153 558Z" />
<glyph unicode="&#xe4;" glyph-name="adieresis" horiz-adv-x="434" d="M267 658H400V542H267V658ZM255 495H392V0H253V49Q238 0 174 0H150Q33 0 33 111V384Q33 495 150 495H174Q241 495 255 439V495ZM200 105H223Q253 105 253 137V358Q253 390 223 390H200Q173
390 173 365V130Q173 105 200 105ZM179 658V542H46V658H179Z" />
<glyph unicode="&#xe5;" glyph-name="aring" horiz-adv-x="434" d="M255 495H392V0H253V49Q238 0 174 0H150Q33 0 33 111V384Q33 495 150 495H174Q241 495 255 439V495ZM200 105H223Q253 105 253 137V358Q253 390 223 390H200Q173 390 173 365V130Q173 105 200
105ZM257 529H179Q88 529 88 611V627Q88 709 179 709H257Q348 709 348 627V611Q348 529 257 529ZM178 624V613Q178 601 182 597T200 592H236Q249 592 254 596T259 613V624Q259 636 254 641T236 646H200Q187 646 183 641T178 624Z" />
<glyph unicode="&#xe6;" glyph-name="ae" horiz-adv-x="668" d="M620 206H394V126Q394 113 400 108T421 102H460Q475 102 481 107T487 126V157H623V111Q623 0 496 0H428Q347 0 320 51Q309 28 282 14T223 0H155Q38 0 38 111V206L258 296V360Q257 390 228 390H205Q178
390 178 365V310H38V384Q38 495 155 495H224Q256 495 283 481T321 444Q348 495 429 495H497Q624 495 624 384V222H620V206ZM461 393H421Q406 393 400 388T394 368V293H488V368Q488 393 461 393ZM205 105H228Q257 105 258 135V205L178 172V130Q178 105 205 105Z"
/>
<glyph unicode="&#xe7;" glyph-name="ccedilla" horiz-adv-x="413" d="M389 317H253V365Q253 390 226 390H200Q173 390 173 365V130Q173 105 200 105H226Q253 105 253 130V178H389V111Q389 0 262 0H160Q33 0 33 111V384Q33 495 160 495H262Q389 495 389 384V317ZM150
-108V-48H281V-119Q281 -232 152 -232H74V-135H122Q150 -135 150 -108Z" />
<glyph unicode="&#xe8;" glyph-name="egrave" horiz-adv-x="429" d="M161 495H274Q401 495 401 384V209H168V124Q168 111 174 106T195 100H240Q254 100 260 106T266 126V159H400V111Q400 0 273 0H161Q35 0 35 111V384Q35 495 161 495ZM168 291H267V371Q267 384
261 389T241 395H195Q180 395 174 390T168 371V291ZM264 527H152L30 670H173L264 527Z" />
<glyph unicode="&#xe9;" glyph-name="eacute" horiz-adv-x="429" d="M161 495H274Q401 495 401 384V209H168V124Q168 111 174 106T195 100H240Q254 100 260 106T266 126V159H400V111Q400 0 273 0H161Q35 0 35 111V384Q35 495 161 495ZM168 291H267V371Q267 384
261 389T241 395H195Q180 395 174 390T168 371V291ZM396 670L273 527H161L252 670H396Z" />
<glyph unicode="&#xea;" glyph-name="ecircumflex" horiz-adv-x="428" d="M161 495H274Q401 495 401 384V209H168V124Q168 111 174 106T195 100H240Q254 100 260 106T266 126V159H400V111Q400 0 273 0H161Q35 0 35 111V384Q35 495 161 495ZM168 291H267V371Q267
384 261 389T241 395H195Q180 395 174 390T168 371V291ZM220 601L167 527H34L153 670H287L405 527H273L220 601Z" />
<glyph unicode="&#xeb;" glyph-name="edieresis" horiz-adv-x="428" d="M161 495H274Q401 495 401 384V209H168V124Q168 111 174 106T195 100H240Q254 100 260 106T266 126V159H400V111Q400 0 273 0H161Q35 0 35 111V384Q35 495 161 495ZM168 291H267V371Q267
384 261 389T241 395H195Q180 395 174 390T168 371V291ZM172 658V542H39V658H172ZM393 658V542H260V658H393Z" />
<glyph unicode="&#xec;" glyph-name="igrave" horiz-adv-x="223" d="M78 670L169 527H57L-65 670H78ZM181 0H42V495H181V0Z" />
<glyph unicode="&#xed;" glyph-name="iacute" horiz-adv-x="223" d="M52 527L143 670H287L164 527H52ZM181 0H42V495H181V0Z" />
<glyph unicode="&#xee;" glyph-name="icircumflex" horiz-adv-x="223" d="M-76 527L43 670H177L295 527H163L110 601L57 527H-76ZM181 0H42V495H181V0Z" />
<glyph unicode="&#xef;" glyph-name="idieresis" horiz-adv-x="223" d="M153 542V658H286V542H153ZM-68 542V658H65V542H-68ZM181 0H42V495H181V0Z" />
<glyph unicode="&#xf0;" glyph-name="eth" d="M409 308V111Q409 0 282 0H160Q33 0 33 111V312Q33 423 160 423H249Q234 462 208 499L101 465V538L161 557Q126 593 68 636H261Q276 624 297 601L386 629V556L342 542Q409 436 409 308ZM271 130V306Q271 319 270 325H200Q173
325 173 300V130Q173 105 200 105H245Q271 105 271 130Z" />
<glyph unicode="&#xf1;" glyph-name="ntilde" horiz-adv-x="439" d="M259 495H284Q401 495 401 384V0H261V365Q261 390 234 390H210Q181 390 181 358V0H42V495H179V439Q193 495 259 495ZM149 558V533H36V575Q36 619 56 642T127 665H142Q172 665 209 642T254 618Q273
618 273 640V665H386V618Q386 575 366 554T294 533H280Q250 533 212 556T166 580Q149 580 149 558Z" />
<glyph unicode="&#xf2;" glyph-name="ograve" horiz-adv-x="439" d="M160 495H279Q345 495 373 467T402 384V111Q402 57 374 29T279 0H160Q94 0 66 28T37 111V384Q37 438 65 466T160 495ZM265 125V370Q265 395 238 395H201Q174 395 174 370V125Q174 100 201 100H238Q265
100 265 125ZM271 527H159L37 670H180L271 527Z" />
<glyph unicode="&#xf3;" glyph-name="oacute" horiz-adv-x="439" d="M160 495H279Q345 495 373 467T402 384V111Q402 57 374 29T279 0H160Q94 0 66 28T37 111V384Q37 438 65 466T160 495ZM265 125V370Q265 395 238 395H201Q174 395 174 370V125Q174 100 201 100H238Q265
100 265 125ZM402 670L279 527H167L258 670H402Z" />
<glyph unicode="&#xf4;" glyph-name="ocircumflex" horiz-adv-x="439" d="M160 495H279Q345 495 373 467T402 384V111Q402 57 374 29T279 0H160Q94 0 66 28T37 111V384Q37 438 65 466T160 495ZM265 125V370Q265 395 238 395H201Q174 395 174 370V125Q174 100 201
100H238Q265 100 265 125ZM219 601L166 527H33L152 670H286L404 527H272L219 601Z" />
<glyph unicode="&#xf5;" glyph-name="otilde" horiz-adv-x="439" d="M160 495H279Q345 495 373 467T402 384V111Q402 57 374 29T279 0H160Q94 0 66 28T37 111V384Q37 438 65 466T160 495ZM265 125V370Q265 395 238 395H201Q174 395 174 370V125Q174 100 201 100H238Q265
100 265 125ZM153 558V533H40V575Q40 619 60 642T131 665H146Q176 665 213 642T258 618Q277 618 277 640V665H390V618Q390 575 370 554T298 533H284Q254 533 216 556T170 580Q153 580 153 558Z" />
<glyph unicode="&#xf6;" glyph-name="odieresis" horiz-adv-x="439" d="M160 495H279Q345 495 373 467T402 384V111Q402 57 374 29T279 0H160Q94 0 66 28T37 111V384Q37 438 65 466T160 495ZM265 125V370Q265 395 238 395H201Q174 395 174 370V125Q174 100 201
100H238Q265 100 265 125ZM175 658V542H42V658H175ZM396 658V542H263V658H396Z" />
<glyph unicode="&#xf7;" glyph-name="divide" horiz-adv-x="487" d="M176 215H311V111H176V215ZM176 523H311V419H176V523ZM25 264V370H462V264H25Z" />
<glyph unicode="&#xf8;" glyph-name="oslash" horiz-adv-x="442" d="M404 384V111Q404 0 281 0H161Q135 0 112 5L97 -20H31L62 33Q38 60 38 111V384Q38 438 66 466T161 495H281Q307 495 330 490L345 515H411L380 462Q404 435 404 384ZM171 375V219L269 386Q265
400 243 400H198Q171 400 171 375ZM271 120V276L172 108Q176 95 198 95H243Q258 95 264 100T271 120Z" />
<glyph unicode="&#xf9;" glyph-name="ugrave" horiz-adv-x="439" d="M258 495H397V0H260V56Q246 0 179 0H155Q38 0 38 111V495H178V130Q178 105 205 105H228Q258 105 258 137V495ZM278 527H166L44 670H187L278 527Z" />
<glyph unicode="&#xfa;" glyph-name="uacute" horiz-adv-x="439" d="M258 495H397V0H260V56Q246 0 179 0H155Q38 0 38 111V495H178V130Q178 105 205 105H228Q258 105 258 137V495ZM391 670L268 527H156L247 670H391Z" />
<glyph unicode="&#xfb;" glyph-name="ucircumflex" horiz-adv-x="437" d="M258 495H397V0H260V56Q246 0 179 0H155Q38 0 38 111V495H178V130Q178 105 205 105H228Q258 105 258 137V495ZM217 601L164 527H31L150 670H284L402 527H270L217 601Z" />
<glyph unicode="&#xfc;" glyph-name="udieresis" horiz-adv-x="448" d="M258 495H397V0H260V56Q246 0 179 0H155Q38 0 38 111V495H178V130Q178 105 205 105H228Q258 105 258 137V495ZM172 658V542H39V658H172ZM393 658V542H260V658H393Z" />
<glyph unicode="&#xfd;" glyph-name="yacute" horiz-adv-x="418" d="M155 527L246 670H390L267 527H155ZM137 -133H62V-29H124Q147 -29 160 -22T181 8L186 28H127L3 495H148L214 151L274 495H415L298 -12Q281 -72 244 -102T137 -133Z" />
<glyph unicode="&#xfe;" glyph-name="thorn" horiz-adv-x="441" d="M255 495H280Q397 495 397 384V111Q397 0 280 0H255Q192 0 177 49V-133H37V669H175V439Q189 495 255 495ZM257 130V365Q257 390 230 390H206Q177 390 177 358V137Q177 105 206 105H230Q257 105 257 130Z" />
<glyph unicode="&#xff;" glyph-name="ydieresis" horiz-adv-x="443" d="M137 -133H62V-29H124Q147 -29 160 -22T181 8L186 28H127L3 495H148L214 151L274 495H415L298 -12Q281 -72 244 -102T137 -133ZM254 542V658H387V542H254ZM33 542V658H166V542H33Z" />
<glyph unicode="&#x2013;" glyph-name="endash" horiz-adv-x="536" d="M38 250V348H424V250H38Z" />
<glyph unicode="&#x2014;" glyph-name="emdash" horiz-adv-x="668" d="M32 250V348H630V250H32Z" />
<glyph unicode="&#x2018;" glyph-name="quoteleft" horiz-adv-x="220" d="M183 342H37V423L142 636H183V342Z" />
<glyph unicode="&#x2019;" glyph-name="quoteright" horiz-adv-x="220" d="M37 636H183V556L78 342H37V636Z" />
<glyph unicode="&#x201a;" glyph-name="quotesinglbase" horiz-adv-x="219" d="M37 148H182V68L82 -145H37V148Z" />
<glyph unicode="&#x201c;" glyph-name="quotedblleft" horiz-adv-x="407" d="M182 342H37V423L142 636H182V342ZM370 342H225V423L330 636H370V342Z" />
<glyph unicode="&#x201d;" glyph-name="quotedblright" horiz-adv-x="407" d="M225 636H370V556L265 342H225V636ZM37 636H182V556L77 342H37V636Z" />
<glyph unicode="&#x201e;" glyph-name="quotedblbase" horiz-adv-x="407" d="M225 148H370V68L265 -145H225V148ZM37 148H182V68L77 -145H37V148Z" />
<glyph unicode="&#x2022;" glyph-name="bullet" horiz-adv-x="396" d="M56 262T56 321T98 421T198 463T298 422T340 321T298 221T198 179T98 220Z" />
<glyph unicode="&#x2039;" glyph-name="guilsinglleft" horiz-adv-x="295" d="M137 99L23 253L137 405H278L166 253L278 99H137Z" />
<glyph unicode="&#x203a;" glyph-name="guilsinglright" horiz-adv-x="296" d="M278 253L165 99H23L136 253L23 405H165L278 253Z" />
</font>
</defs>
</svg>
