<?xml version="1.0" standalone="no"?>
<!DOCTYPE svg PUBLIC "-//W3C//DTD SVG 1.1//EN" "http://www.w3.org/Graphics/SVG/1.1/DTD/svg11.dtd">
<svg xmlns="http://www.w3.org/2000/svg">
<defs >
<font id="Teko" horiz-adv-x="495" ><font-face
    font-family="Teko"
    units-per-em="1000"
    panose-1="2 0 0 0 0 0 0 0 0 0"
    ascent="958"
    descent="-475"
    alphabetic="0" />
<glyph unicode=" " glyph-name="space" horiz-adv-x="200" />
<glyph unicode="!" glyph-name="exclam" horiz-adv-x="297" d="M62 0V164H234V0H62ZM50 642H247L217 233H80L50 642Z" />
<glyph unicode="&quot;" glyph-name="quotedbl" horiz-adv-x="434" d="M241 642H394V376H241V642ZM40 642H193V376H40V642Z" />
<glyph unicode="#" glyph-name="numbersign" horiz-adv-x="678" d="M648 389H550L519 252H601V142H494L462 0H317L349 142H249L217 0H71L103 142H30V252H128L159 389H77V499H184L216 641H361L329 499H429L461 641H607L575 499H648V389ZM374 252L404 389H304L274 252H374Z" />
<glyph unicode="$" glyph-name="dollar" horiz-adv-x="491" d="M230 378H324Q398 378 429 347T461 256V124Q461 5 328 0V-84H162V0Q32 7 32 124V201H207V147Q207 125 232 125H261Q286 125 286 147V238Q286 260 261 260H165Q91 260 61 292T30 386V518Q30 636 162
642V727H328V642Q459 635 459 518V441H284V495Q284 517 259 517H230Q205 517 205 495V400Q205 378 230 378Z" />
<glyph unicode="%" glyph-name="percent" horiz-adv-x="898" d="M568 642H695L332 0H207L568 642ZM732 120V263Q732 281 712 281H696Q676 281 676 263V120Q676 103 696 103H712Q732 103 732 120ZM222 379V522Q222 540 202 540H186Q166 540 166 522V379Q166 362
186 362H202Q222 362 222 379ZM873 283V100Q873 0 755 0H653Q535 0 535 100V283Q535 383 653 383H755Q873 383 873 283ZM363 542V359Q363 259 245 259H143Q25 259 25 359V542Q25 642 143 642H245Q363 642 363 542Z" />
<glyph unicode="&amp;" glyph-name="ampersand" horiz-adv-x="625" d="M453 0H177Q30 0 30 124V182Q30 232 49 259T124 316L140 325L136 330Q96 372 81 396T66 450V518Q66 642 213 642H330Q474 642 474 518V450Q474 395 450 366Q423 334 353 294L459 181V251H597V124Q597
82 578 54L662 -36H488L453 0ZM236 508V443Q236 417 259 393Q288 409 298 419T309 447V508Q309 530 284 530H261Q236 530 236 508ZM220 115H343L235 227L218 217Q195 203 195 179V137Q195 115 220 115Z" />
<glyph unicode="&apos;" glyph-name="quotesingle" horiz-adv-x="243" d="M40 642H203V376H40V642Z" />
<glyph unicode="(" glyph-name="parenleft" horiz-adv-x="337" d="M40 497Q40 646 112 725T318 804H327V659H318Q215 659 215 500V138Q215 -21 318 -21H327V-166H318Q185 -166 113 -87T40 141V497Z" />
<glyph unicode=")" glyph-name="parenright" horiz-adv-x="337" d="M297 141Q297 -8 225 -87T19 -166H10V-21H19Q122 -21 122 138V500Q122 659 19 659H10V804H19Q152 804 224 725T297 497V141Z" />
<glyph unicode="*" glyph-name="asterisk" horiz-adv-x="390" d="M133 626V642H258V625Q258 581 247 548Q281 570 335 587L373 469Q325 451 280 449Q310 426 335 391L345 378L244 305Q212 345 196 389Q184 351 148 304L47 377Q82 425 112 448Q72 450 18 468L57
586Q109 570 144 547Q133 586 133 626Z" />
<glyph unicode="+" glyph-name="plus" horiz-adv-x="513" d="M498 382V257H338V102H175V257H15V382H175V537H338V382H498Z" />
<glyph unicode="," glyph-name="comma" horiz-adv-x="252" d="M40 164H212V74L92 -149H40V164Z" />
<glyph unicode="-" glyph-name="hyphen" horiz-adv-x="343" d="M20 245V360H323V245H20Z" />
<glyph unicode="." glyph-name="period" horiz-adv-x="252" d="M40 0V164H212V0H40Z" />
<glyph unicode="/" glyph-name="slash" horiz-adv-x="411" d="M287 702H431L124 -60H-20L287 702Z" />
<glyph unicode="0" glyph-name="zero" horiz-adv-x="501" d="M289 147V495Q289 517 264 517H237Q212 517 212 495V147Q212 125 237 125H264Q289 125 289 147ZM464 518V124Q464 0 317 0H184Q37 0 37 124V518Q37 642 184 642H317Q464 642 464 518Z" />
<glyph unicode="1" glyph-name="one" horiz-adv-x="323" d="M283 642V0H108V517H18V642H283Z" />
<glyph unicode="2" glyph-name="two" horiz-adv-x="469" d="M198 495V422H23V518Q23 642 170 642H291Q440 642 440 518V426Q440 376 424 341T370 264L246 125H440V0H28V114L218 318Q248 349 258 371T268 427V495Q268 517 243 517H223Q198 517 198 495Z" />
<glyph unicode="3" glyph-name="three" horiz-adv-x="477" d="M200 495V432H25V518Q25 642 172 642H295Q442 642 442 518V440Q442 353 394 327Q422 315 432 291T442 224V124Q442 0 295 0H172Q25 0 25 124V210H200V147Q200 125 225 125H245Q270 125 270 147V246Q270
268 245 268H164V383H245Q270 383 270 405V495Q270 517 245 517H225Q200 517 200 495Z" />
<glyph unicode="4" glyph-name="four" horiz-adv-x="507" d="M507 242V115H439V0H275V115H10V270L251 642H427L169 242H275V369H439V242H507Z" />
<glyph unicode="5" glyph-name="five" horiz-adv-x="498" d="M220 423H321Q468 423 468 299V124Q468 0 321 0H187Q40 0 40 124V225H215V147Q215 125 240 125H271Q296 125 296 147V276Q296 298 271 298H48V642H458V517H220V423Z" />
<glyph unicode="6" glyph-name="six" horiz-adv-x="494" d="M207 385H317Q464 385 464 261V124Q464 0 317 0H184Q37 0 37 124V518Q37 642 184 642H307Q454 642 454 518V446H284V495Q284 517 259 517H232Q207 517 207 495V385ZM294 147V243Q294 265 269 265H207V147Q207
125 232 125H269Q294 125 294 147Z" />
<glyph unicode="7" glyph-name="seven" horiz-adv-x="422" d="M417 642V547L222 0H41L230 507H10V642H417Z" />
<glyph unicode="8" glyph-name="eight" horiz-adv-x="498" d="M463 518V440Q463 353 415 327Q443 315 453 291T463 224V124Q463 0 316 0H182Q35 0 35 124V224Q35 306 82 327Q35 353 35 440V518Q35 642 182 642H316Q463 642 463 518ZM296 145V251Q296 273 271 273H227Q202
273 202 251V145Q202 123 227 123H271Q296 123 296 145ZM296 400V497Q296 519 271 519H227Q202 519 202 497V400Q202 378 227 378H271Q296 378 296 400Z" />
<glyph unicode="9" glyph-name="nine" horiz-adv-x="494" d="M177 642H310Q457 642 457 518V124Q457 0 310 0H185Q38 0 38 124V191H208V147Q208 125 233 125H262Q287 125 287 147V247H177Q30 247 30 371V518Q30 642 177 642ZM225 362H287V495Q287 517 262 517H225Q200
517 200 495V384Q200 362 225 362Z" />
<glyph unicode=":" glyph-name="colon" horiz-adv-x="252" d="M40 0V164H212V0H40ZM40 335V499H212V335H40Z" />
<glyph unicode=";" glyph-name="semicolon" horiz-adv-x="252" d="M40 335V499H212V335H40ZM40 164H212V74L92 -149H40V164Z" />
<glyph unicode="&lt;" glyph-name="less" horiz-adv-x="533" d="M508 402L193 323L508 242V106L25 252V398L508 536V402Z" />
<glyph unicode="=" glyph-name="equal" horiz-adv-x="533" d="M25 149V278H508V149H25ZM25 361V490H508V361H25Z" />
<glyph unicode="&gt;" glyph-name="greater" horiz-adv-x="533" d="M340 323L25 402V536L508 398V252L25 106V242L340 323Z" />
<glyph unicode="?" glyph-name="question" horiz-adv-x="469" d="M167 642H302Q449 642 449 518V418Q449 295 306 294L300 233H154L139 386H249Q274 386 274 408V505Q274 527 249 527H220Q195 527 195 505V437H20V518Q20 642 167 642ZM139 0V164H311V0H139Z" />
<glyph unicode="@" glyph-name="at" horiz-adv-x="863" d="M393 312V205Q393 185 415 185H440Q464 185 464 212V305Q464 332 440 332H415Q393 332 393 312ZM247 324Q247 437 368 437H384Q452 437 467 379V437H602V184H646Q671 184 671 206V481Q671 503 646 503H215Q190
503 190 481V33Q190 11 215 11H603V-104H173Q40 -104 40 20V494Q40 618 173 618H686Q817 618 817 494V204Q817 80 684 80H468V141Q455 80 384 80H368Q247 80 247 193V324Z" />
<glyph unicode="A" glyph-name="A" horiz-adv-x="543" d="M367 0L347 96H193L172 0H0L165 642H378L543 0H367ZM220 220H320L271 451L220 220Z" />
<glyph unicode="B" glyph-name="B" horiz-adv-x="516" d="M309 401V505Q309 527 284 527H212V379H284Q309 379 309 401ZM309 137V242Q309 264 284 264H212V115H284Q309 115 309 137ZM40 642H334Q481 642 481 518V436Q481 349 433 323Q461 311 471 287T481 220V124Q481
0 334 0H40V642Z" />
<glyph unicode="C" glyph-name="C" d="M470 402H295V505Q295 527 270 527H235Q210 527 210 505V137Q210 115 235 115H270Q295 115 295 137V236H470V124Q470 0 323 0H182Q35 0 35 124V518Q35 642 182 642H323Q470 642 470 518V402Z" />
<glyph unicode="D" glyph-name="D" horiz-adv-x="529" d="M50 642H345Q492 642 492 518V124Q492 0 345 0H50V642ZM317 137V505Q317 527 292 527H225V115H292Q317 115 317 137Z" />
<glyph unicode="E" glyph-name="E" horiz-adv-x="449" d="M215 125H434V0H40V642H425V517H215V386H396V261H215V125Z" />
<glyph unicode="F" glyph-name="F" horiz-adv-x="440" d="M425 517H215V361H397V246H215V0H40V642H425V517Z" />
<glyph unicode="G" glyph-name="G" horiz-adv-x="501" d="M471 422H296V505Q296 527 271 527H235Q210 527 210 505V137Q210 115 235 115H271Q296 115 296 137V244H246V355H471V124Q471 0 324 0H182Q35 0 35 124V518Q35 642 182 642H324Q471 642 471 518V422Z" />
<glyph unicode="H" glyph-name="H" horiz-adv-x="550" d="M338 642H510V0H338V254H212V0H40V642H212V379H338V642Z" />
<glyph unicode="I" glyph-name="I" horiz-adv-x="255" d="M40 642H215V0H40V642Z" />
<glyph unicode="J" glyph-name="J" horiz-adv-x="457" d="M10 257H185V147Q185 125 210 125H221Q246 125 246 147V642H421V124Q421 0 274 0H157Q10 0 10 124V257Z" />
<glyph unicode="K" glyph-name="K" horiz-adv-x="530" d="M398 328L524 0H336L216 328L335 642H523L398 328ZM40 0V642H215V0H40Z" />
<glyph unicode="L" glyph-name="L" horiz-adv-x="414" d="M215 125H414V0H40V642H215V125Z" />
<glyph unicode="M" glyph-name="M" horiz-adv-x="670" d="M196 0H40V642H231L335 299L439 642H630V0H475V408L395 139H275L196 406V0Z" />
<glyph unicode="N" glyph-name="N" horiz-adv-x="533" d="M333 642H493V0H343L200 337V0H40V642H190L333 299V642Z" />
<glyph unicode="O" glyph-name="O" horiz-adv-x="516" d="M184 642H332Q479 642 479 518V124Q479 0 332 0H184Q37 0 37 124V518Q37 642 184 642ZM304 147V495Q304 517 279 517H237Q212 517 212 495V147Q212 125 237 125H279Q304 125 304 147Z" />
<glyph unicode="P" glyph-name="P" horiz-adv-x="504" d="M40 642H337Q484 642 484 518V334Q484 210 337 210H215V0H40V642ZM309 357V495Q309 517 284 517H215V335H284Q309 335 309 357Z" />
<glyph unicode="Q" glyph-name="Q" horiz-adv-x="516" d="M184 0Q37 0 37 124V518Q37 642 184 642H332Q479 642 479 518V124Q479 62 442 31L535 -68H336L273 0H184ZM212 495V147Q212 125 237 125H279Q304 125 304 147V495Q304 517 279 517H237Q212 517 212 495Z" />
<glyph unicode="R" glyph-name="R" horiz-adv-x="514" d="M215 228V0H40V642H337Q484 642 484 518V352Q484 257 398 235L516 0H328L226 228H215ZM284 517H215V347H284Q309 347 309 369V495Q309 517 284 517Z" />
<glyph unicode="S" glyph-name="S" horiz-adv-x="491" d="M286 147V238Q286 260 261 260H165Q91 260 61 292T30 386V518Q30 642 176 642H313Q459 642 459 518V441H284V495Q284 517 259 517H230Q205 517 205 495V400Q205 378 230 378H324Q398 378 429 347T461 256V124Q461
0 315 0H179Q32 0 32 124V201H207V147Q207 125 232 125H261Q286 125 286 147Z" />
<glyph unicode="T" glyph-name="T" horiz-adv-x="432" d="M427 642V517H303V0H128V517H5V642H427Z" />
<glyph unicode="U" glyph-name="U" horiz-adv-x="522" d="M307 642H482V124Q482 0 335 0H187Q40 0 40 124V642H215V147Q215 125 240 125H282Q307 125 307 147V642Z" />
<glyph unicode="V" glyph-name="V" horiz-adv-x="533" d="M344 642H526L368 0H165L7 642H189L266 213L344 642Z" />
<glyph unicode="W" glyph-name="W" horiz-adv-x="836" d="M653 642H826L690 0H489L418 383L347 0H146L10 642H192L246 210L332 642H503L589 210L653 642Z" />
<glyph unicode="X" glyph-name="X" horiz-adv-x="521" d="M354 326L521 0H324L255 180L186 0H0L157 326L4 642H202L255 478L309 642H497L354 326Z" />
<glyph unicode="Y" glyph-name="Y" horiz-adv-x="519" d="M352 0H177V208L0 642H179L263 371L341 642H519L352 210V0Z" />
<glyph unicode="Z" glyph-name="Z" horiz-adv-x="464" d="M444 642V517L203 125H437V0H20V125L261 517H33V642H444Z" />
<glyph unicode="[" glyph-name="bracketleft" horiz-adv-x="317" d="M307 666H215V-32H307V-157H40V791H307V666Z" />
<glyph unicode="\" glyph-name="backslash" horiz-adv-x="411" d="M-20 702H124L431 -60H287L-20 702Z" />
<glyph unicode="]" glyph-name="bracketright" horiz-adv-x="317" d="M277 791V-157H10V-32H102V666H10V791H277Z" />
<glyph unicode="^" glyph-name="asciicircum" horiz-adv-x="704" d="M214 669H446L568 280H391L330 525L269 280H92L214 669Z" />
<glyph unicode="_" glyph-name="underscore" horiz-adv-x="474" d="M0 -155V-40H474V-155H0Z" />
<glyph unicode="`" glyph-name="grave" horiz-adv-x="500" d="M266 682L363 532H229L96 682H266Z" />
<glyph unicode="a" glyph-name="a" horiz-adv-x="479" d="M272 499H439V0H269V54Q250 0 181 0H163Q30 0 30 124V375Q30 499 163 499H181Q258 499 272 435V499ZM225 125H242Q269 125 269 155V344Q269 374 242 374H225Q200 374 200 352V147Q200 125 225 125Z" />
<glyph unicode="b" glyph-name="b" horiz-adv-x="479" d="M298 499H316Q449 499 449 375V124Q449 0 316 0H298Q221 0 207 64V0H40V669H210V445Q229 499 298 499ZM279 147V352Q279 374 254 374H237Q210 374 210 344V155Q210 125 237 125H254Q279 125 279 147Z" />
<glyph unicode="c" glyph-name="c" horiz-adv-x="451" d="M431 306H267V352Q267 374 242 374H225Q200 374 200 352V147Q200 125 225 125H242Q267 125 267 147V193H431V124Q431 0 284 0H177Q30 0 30 124V375Q30 499 177 499H284Q431 499 431 375V306Z" />
<glyph unicode="d" glyph-name="d" horiz-adv-x="479" d="M269 669H439V0H272V64Q258 0 181 0H163Q30 0 30 124V375Q30 499 163 499H181Q250 499 269 445V669ZM225 125H242Q269 125 269 155V344Q269 374 242 374H225Q200 374 200 352V147Q200 125 225 125Z" />
<glyph unicode="e" glyph-name="e" horiz-adv-x="471" d="M177 499H299Q446 499 446 375V205H191V139Q191 117 216 117H260Q285 117 285 141V169H446V124Q446 0 299 0H177Q30 0 30 124V375Q30 499 177 499ZM191 297H285V360Q285 382 260 382H216Q191 382 191 360V297Z" />
<glyph unicode="f" glyph-name="f" horiz-adv-x="314" d="M309 549H256Q231 549 231 527V499H309V374H231V0H61V374H10V499H61V545Q61 669 208 669H309V549Z" />
<glyph unicode="g" glyph-name="g" horiz-adv-x="479" d="M272 499H439V-5Q439 -129 292 -129H53V-9H244Q269 -9 269 13V84Q250 30 181 30H163Q30 30 30 154V375Q30 499 163 499H181Q258 499 272 435V499ZM225 155H242Q269 155 269 185V344Q269 374 242 374H225Q200
374 200 352V177Q200 155 225 155Z" />
<glyph unicode="h" glyph-name="h" horiz-adv-x="484" d="M298 499H316Q449 499 449 375V0H279V352Q279 374 254 374H237Q210 374 210 344V0H40V669H210V445Q229 499 298 499Z" />
<glyph unicode="i" glyph-name="i" horiz-adv-x="250" d="M37 549V669H213V549H37ZM210 0H40V499H210V0Z" />
<glyph unicode="j" glyph-name="j" horiz-adv-x="250" d="M37 549V669H213V549H37ZM40 13V499H210V-5Q210 -129 63 -129H-18V-9H15Q40 -9 40 13Z" />
<glyph unicode="k" glyph-name="k" horiz-adv-x="475" d="M210 0H40V669H210V272L304 499H480L373 253L480 0H303L210 233V0Z" />
<glyph unicode="l" glyph-name="l" horiz-adv-x="250" d="M210 0H40V669H210V0Z" />
<glyph unicode="m" glyph-name="m" horiz-adv-x="723" d="M537 499H555Q688 499 688 375V0H518V352Q518 374 493 374H476Q449 374 449 344V0H279V352Q279 374 254 374H237Q210 374 210 344V0H40V499H207V435Q221 499 298 499H316Q409 499 438 436Q446 465 473
482T537 499Z" />
<glyph unicode="n" glyph-name="n" horiz-adv-x="484" d="M298 499H316Q449 499 449 375V0H279V352Q279 374 254 374H237Q210 374 210 344V0H40V499H207V435Q221 499 298 499Z" />
<glyph unicode="o" glyph-name="o" horiz-adv-x="481" d="M177 499H304Q380 499 413 467T446 375V124Q446 64 413 32T304 0H177Q101 0 68 32T35 124V375Q35 435 68 467T177 499ZM279 140V359Q279 381 254 381H227Q202 381 202 359V140Q202 118 227 118H254Q279
118 279 140Z" />
<glyph unicode="p" glyph-name="p" horiz-adv-x="479" d="M298 499H316Q449 499 449 375V124Q449 0 316 0H298Q229 0 210 54V-129H40V499H207V435Q221 499 298 499ZM279 147V352Q279 374 254 374H237Q210 374 210 344V155Q210 125 237 125H254Q279 125 279 147Z" />
<glyph unicode="q" glyph-name="q" horiz-adv-x="479" d="M272 499H439V-129H269V54Q250 0 181 0H163Q30 0 30 124V375Q30 499 163 499H181Q258 499 272 435V499ZM225 125H242Q269 125 269 155V344Q269 374 242 374H225Q200 374 200 352V147Q200 125 225 125Z" />
<glyph unicode="r" glyph-name="r" horiz-adv-x="335" d="M315 504H330V356H273Q210 356 210 288V0H40V499H207V422Q215 460 243 482T315 504Z" />
<glyph unicode="s" glyph-name="s" horiz-adv-x="445" d="M255 132V172Q255 194 230 194H169Q25 194 25 317V375Q25 499 172 499H265Q412 499 412 375V333H250V367Q250 389 225 389H215Q190 389 190 367V323Q190 301 215 301H276Q353 301 386 270T420 179V124Q420
0 273 0H175Q28 0 28 124V165H193V132Q193 110 218 110H230Q255 110 255 132Z" />
<glyph unicode="t" glyph-name="t" horiz-adv-x="303" d="M293 374H230V147Q230 125 255 125H292V0H207Q60 0 60 124V374H5V499H60V597H230V499H293V374Z" />
<glyph unicode="u" glyph-name="u" horiz-adv-x="484" d="M274 499H444V0H277V64Q263 0 186 0H168Q35 0 35 124V499H205V147Q205 125 230 125H247Q274 125 274 155V499Z" />
<glyph unicode="v" glyph-name="v" horiz-adv-x="459" d="M169 499L230 179L290 499H459L331 0H128L0 499H169Z" />
<glyph unicode="w" glyph-name="w" horiz-adv-x="679" d="M518 499H674L567 0H398L337 294L275 0H106L5 499H163L200 184L265 499H414L472 186L518 499Z" />
<glyph unicode="x" glyph-name="x" horiz-adv-x="447" d="M323 258L447 0H275L221 148L172 0H6L120 255L0 499H178L221 360L264 499H433L323 258Z" />
<glyph unicode="y" glyph-name="y" horiz-adv-x="464" d="M150 -129H66V-6H140Q164 -6 178 2T202 40H137L0 499H178L239 195L293 499H464L339 10Q318 -59 275 -94T150 -129Z" />
<glyph unicode="z" glyph-name="z" horiz-adv-x="391" d="M381 119V0H10V119L189 380H23V499H371V380L189 119H381Z" />
<glyph unicode="{" glyph-name="braceleft" horiz-adv-x="326" d="M265 654V443Q265 337 187 318Q222 316 243 286T265 204V-19Q265 -41 290 -41H316V-156H237Q161 -156 126 -120T90 -22V180Q90 222 75 241T23 260H16V375H23Q59 375 74 394T90 457V657Q90 718
125 754T237 791H316V676H290Q265 676 265 654Z" />
<glyph unicode="|" glyph-name="bar" horiz-adv-x="266" d="M50 833H205V-193H50V833Z" />
<glyph unicode="}" glyph-name="braceright" horiz-adv-x="326" d="M61 443V654Q61 676 36 676H10V791H89Q165 791 200 755T236 657V457Q236 414 251 395T303 375H310V260H303Q267 260 252 241T236 180V-22Q236 -83 201 -119T89 -156H10V-41H36Q61 -41 61 -19V204Q61
256 82 286T139 318Q61 337 61 443Z" />
<glyph unicode="~" glyph-name="asciitilde" horiz-adv-x="719" d="M441 204Q402 204 352 242T282 281T257 274T251 249V204H96V289Q96 341 122 365T207 389H274Q331 389 400 331Q422 312 437 312T458 319T464 344V389H619V304Q619 252 593 228T508 204H441Z" />
<glyph unicode="&#xa0;" glyph-name="uni00A0" horiz-adv-x="200" />
<glyph unicode="&#xa1;" glyph-name="exclamdown" horiz-adv-x="297" d="M247 -143H50L80 266H217L247 -143ZM62 335V499H234V335H62Z" />
<glyph unicode="&#xa2;" glyph-name="cent" horiz-adv-x="451" d="M431 306H267V352Q267 374 242 374H225Q200 374 200 352V147Q200 125 225 125H242Q267 125 267 147V193H431V124Q431 13 315 2V-80H150V1Q30 12 30 124V375Q30 487 150 498V579H315V497Q431 486
431 375V306Z" />
<glyph unicode="&#xa3;" glyph-name="sterling" horiz-adv-x="506" d="M491 125V0H20V116Q50 120 57 137T64 198V244H20V359H64V518Q64 642 211 642H340Q487 642 487 518V425H312V495Q312 517 287 517H264Q239 517 239 495V359H387V244H239V197Q239 145 212 125H491Z" />
<glyph unicode="&#xa4;" glyph-name="currency" horiz-adv-x="595" d="M508 326V274Q508 219 495 180L540 135L439 33L379 93Q358 89 326 89H251Q222 89 194 94L133 33L32 135L81 184Q69 219 69 274V326Q69 390 86 431L32 485L133 587L211 510Q235 512 251 512H326Q340
512 362 510L439 587L540 485L489 434Q508 395 508 326ZM280 198H295Q337 198 354 212T372 274V325Q372 372 355 387T295 402H280Q238 402 221 387T203 325V274Q203 227 220 213T280 198Z" />
<glyph unicode="&#xa5;" glyph-name="yen" horiz-adv-x="529" d="M493 230V125H357V0H182V125H43V230H173L159 264H43V369H116L5 642H184L268 371L346 642H524L418 369H492V264H378L365 230H493Z" />
<glyph unicode="&#xa6;" glyph-name="brokenbar" horiz-adv-x="266" d="M215 378H40V733H215V378ZM40 262H215V-93H40V262Z" />
<glyph unicode="&#xa7;" glyph-name="section" horiz-adv-x="540" d="M480 512H310V537Q310 559 285 559H264Q239 559 239 537V497Q239 475 264 475H325Q472 475 472 351V280Q472 219 446 189Q471 158 471 108V47Q471 -77 324 -77H207Q60 -77 60 47V80H230V55Q230
33 255 33H276Q301 33 301 55V95Q301 117 276 117H215Q68 117 68 241V298Q68 366 101 395Q69 427 69 484V545Q69 669 216 669H333Q480 669 480 545V512ZM312 254V338Q312 360 287 360H253Q228 360 228 338V254Q228 232 253 232H287Q312 232 312 254Z" />
<glyph unicode="&#xa8;" glyph-name="dieresis" horiz-adv-x="500" d="M294 542V672H446V542H294ZM54 542V672H206V542H54Z" />
<glyph unicode="&#xa9;" glyph-name="copyright" horiz-adv-x="772" d="M413 260V294H530V240Q530 155 429 155H345Q244 155 244 240V403Q244 488 345 488H429Q530 488 530 403V350H413V383Q413 398 396 398H378Q361 398 361 383V260Q361 245 378 245H396Q413
245 413 260ZM321 99H451Q539 99 575 136T612 286V356Q612 469 576 506T451 543H321Q233 543 197 506T160 356V286Q160 173 196 136T321 99ZM742 338V304Q742 163 690 85Q633 0 484 0H288Q139 0 82 85Q30 163 30 304V338Q30 479 82 557Q139 642 288 642H484Q633
642 690 557Q742 479 742 338Z" />
<glyph unicode="&#xaa;" glyph-name="ordfeminine" horiz-adv-x="337" d="M205 642H307V289H202V319Q191 289 150 289H119Q25 289 25 377V554Q25 642 119 642H146Q195 642 205 599V642ZM147 375H183Q202 375 202 397V537Q202 558 183 558H147Q130 558 130 542V391Q130
375 147 375Z" />
<glyph unicode="&#xab;" glyph-name="guillemotleft" horiz-adv-x="501" d="M337 96L227 249L337 400H496L389 249L496 96H337ZM125 96L15 249L125 400H284L177 249L284 96H125Z" />
<glyph unicode="&#xac;" glyph-name="logicalnot" horiz-adv-x="567" d="M507 417V101H392V242H50V417H507Z" />
<glyph unicode="&#xad;" glyph-name="uni00AD" horiz-adv-x="343" d="M20 245V360H323V245H20Z" />
<glyph unicode="&#xae;" glyph-name="registered" horiz-adv-x="478" d="M256 567V595Q256 602 248 602H226V560H248Q256 560 256 567ZM169 642H265Q313 642 313 602V560Q313 530 286 521L325 453H263L230 519H226V453H169V642ZM201 420H277Q329 420 350 440T371
526V568Q371 633 350 653T277 673H201Q149 673 128 653T106 568V526Q106 460 127 440T201 420ZM448 556V537Q448 450 415 404T296 358H181Q96 358 63 404T30 537V556Q30 644 63 689T181 735H296Q381 735 414 689T448 556Z" />
<glyph unicode="&#xaf;" glyph-name="overscore" horiz-adv-x="500" d="M55 555V661H444V555H55Z" />
<glyph unicode="&#xb0;" glyph-name="degree" horiz-adv-x="484" d="M286 430V515Q286 537 261 537H223Q198 537 198 515V430Q198 408 223 408H261Q286 408 286 430ZM444 518V427Q444 367 411 335T302 303H182Q106 303 73 335T40 427V518Q40 578 73 610T182 642H302Q378
642 411 610T444 518Z" />
<glyph unicode="&#xb1;" glyph-name="plusminus" horiz-adv-x="533" d="M348 492H508V371H348V296H185V371H25V492H185V567H348V492ZM25 139V264H508V139H25Z" />
<glyph unicode="&#xb2;" glyph-name="twosuperior" horiz-adv-x="287" d="M119 561V511H13V574Q13 642 94 642H182Q262 642 262 574V532Q262 466 218 427L145 362H262V289H15V353L135 464Q149 477 153 488T157 524V561Q157 573 144 573H133Q119 573 119 561Z" />
<glyph unicode="&#xb3;" glyph-name="threesuperior" horiz-adv-x="283" d="M119 561V527H13V574Q13 642 94 642H181Q262 642 262 574V527Q262 479 236 465Q262 453 262 408V357Q262 289 181 289H94Q13 289 13 357V405H119V370Q119 358 133 358H144Q157 358 157
370V420Q157 432 144 432H107V496H144Q157 496 157 508V561Q157 573 144 573H133Q119 573 119 561Z" />
<glyph unicode="&#xb4;" glyph-name="acute" horiz-adv-x="500" d="M116 532L213 682H383L250 532H116Z" />
<glyph unicode="&#xb5;" glyph-name="uni00B5" horiz-adv-x="489" d="M279 499H449V0H282V64Q270 10 210 1V-129H40V499H210V147Q210 125 235 125H252Q279 125 279 155V499Z" />
<glyph unicode="&#xb6;" glyph-name="paragraph" horiz-adv-x="569" d="M384 642H519V-129H384V642ZM331 642V-129H196V210H174Q27 210 27 334V518Q27 642 174 642H331Z" />
<glyph unicode="&#xb7;" glyph-name="middot" horiz-adv-x="272" d="M49 258V412H221V258H49Z" />
<glyph unicode="&#xb8;" glyph-name="cedilla" horiz-adv-x="500" d="M199 -123V-46H359V-136Q359 -260 212 -260H121V-145H174Q199 -145 199 -123Z" />
<glyph unicode="&#xb9;" glyph-name="onesuperior" horiz-adv-x="218" d="M169 642V289H59V573H10V642H169Z" />
<glyph unicode="&#xba;" glyph-name="ordmasculine" horiz-adv-x="331" d="M125 642H205Q259 642 282 620T306 554V377Q306 289 205 289H125Q25 289 25 377V554Q25 642 125 642ZM201 373V557Q201 573 183 573H148Q130 573 130 557V373Q130 358 148 358H183Q201
358 201 373Z" />
<glyph unicode="&#xbb;" glyph-name="guillemotright" horiz-adv-x="501" d="M496 249L386 96H227L334 249L227 400H386L496 249ZM284 249L174 96H15L122 249L15 400H174L284 249Z" />
<glyph unicode="&#xbf;" glyph-name="questiondown" horiz-adv-x="469" d="M274 62H449V-19Q449 -143 302 -143H167Q20 -143 20 -19V81Q20 204 163 205L169 266H315L330 113H220Q195 113 195 91V-6Q195 -28 220 -28H249Q274 -28 274 -6V62ZM330 499V335H158V499H330Z" />
<glyph unicode="&#xc0;" glyph-name="Agrave" horiz-adv-x="543" d="M367 0L347 96H193L172 0H0L165 642H378L543 0H367ZM220 220H320L271 451L220 220ZM331 675H197L64 825H234L331 675Z" />
<glyph unicode="&#xc1;" glyph-name="Aacute" horiz-adv-x="543" d="M367 0L347 96H193L172 0H0L165 642H378L543 0H367ZM220 220H320L271 451L220 220ZM474 825L341 675H207L304 825H474Z" />
<glyph unicode="&#xc2;" glyph-name="Acircumflex" horiz-adv-x="543" d="M367 0L347 96H193L172 0H0L165 642H378L543 0H367ZM220 220H320L271 451L220 220ZM271 744L218 675H61L194 825H348L481 675H324L271 744Z" />
<glyph unicode="&#xc3;" glyph-name="Atilde" horiz-adv-x="543" d="M367 0L347 96H193L172 0H0L165 642H378L543 0H367ZM220 220H320L271 451L220 220ZM198 706V675H63V730Q63 777 85 801T162 825H181Q215 825 256 799T303 773Q321 773 321 794V825H456V765Q456
719 433 697T355 675H338Q304 675 263 701T216 727Q198 727 198 706Z" />
<glyph unicode="&#xc4;" glyph-name="Adieresis" horiz-adv-x="543" d="M367 0L347 96H193L172 0H0L165 642H378L543 0H367ZM220 220H320L271 451L220 220ZM227 805V675H75V805H227ZM467 805V675H315V805H467Z" />
<glyph unicode="&#xc5;" glyph-name="Aring" horiz-adv-x="543" d="M367 0L347 96H193L172 0H0L165 642H378L543 0H367ZM220 220H320L271 451L220 220ZM315 674H229Q127 674 127 763V779Q127 869 229 869H315Q417 869 417 779V763Q417 674 315 674ZM233 778V764Q233
745 253 745H291Q311 745 311 764V778Q311 797 291 797H253Q233 797 233 778Z" />
<glyph unicode="&#xc6;" glyph-name="AE" horiz-adv-x="770" d="M534 125H753V0H369V115H215L172 0H0L255 642H744V517H534V386H715V261H534V125ZM369 235V531L259 235H369Z" />
<glyph unicode="&#xc7;" glyph-name="Ccedilla" d="M470 402H295V505Q295 527 270 527H235Q210 527 210 505V137Q210 115 235 115H270Q295 115 295 137V236H470V124Q470 0 323 0H182Q35 0 35 124V518Q35 642 182 642H323Q470 642 470 518V402ZM170 -123V-46H330V-136Q330
-260 183 -260H92V-145H145Q170 -145 170 -123Z" />
<glyph unicode="&#xc8;" glyph-name="Egrave" horiz-adv-x="449" d="M215 125H434V0H40V642H425V517H215V386H396V261H215V125ZM302 675H168L35 825H205L302 675Z" />
<glyph unicode="&#xc9;" glyph-name="Eacute" horiz-adv-x="449" d="M215 125H434V0H40V642H425V517H215V386H396V261H215V125ZM432 825L299 675H165L262 825H432Z" />
<glyph unicode="&#xca;" glyph-name="Ecircumflex" horiz-adv-x="449" d="M215 261V125H434V0H40V642H425V517H215V386H396V261H215ZM236 744L183 675H26L159 825H313L446 675H289L236 744Z" />
<glyph unicode="&#xcb;" glyph-name="Edieresis" horiz-adv-x="500" d="M215 125H434V0H40V642H425V517H215V386H396V261H215V125ZM190 805V675H38V805H190ZM430 805V675H278V805H430Z" />
<glyph unicode="&#xcc;" glyph-name="Igrave" horiz-adv-x="255" d="M97 825L194 675H60L-73 825H97ZM40 642H215V0H40V642Z" />
<glyph unicode="&#xcd;" glyph-name="Iacute" horiz-adv-x="255" d="M56 675L153 825H323L190 675H56ZM40 642H215V0H40V642Z" />
<glyph unicode="&#xce;" glyph-name="Icircumflex" horiz-adv-x="255" d="M-83 675L50 825H204L337 675H180L127 744L74 675H-83ZM40 642H215V0H40V642Z" />
<glyph unicode="&#xcf;" glyph-name="Idieresis" horiz-adv-x="255" d="M40 642H215V0H40V642ZM172 675V805H324V675H172ZM-68 675V805H84V675H-68Z" />
<glyph unicode="&#xd0;" glyph-name="Eth" horiz-adv-x="527" d="M50 642H345Q492 642 492 518V124Q492 0 345 0H50V269H-5V384H50V642ZM317 137V505Q317 527 292 527H225V384H280V269H225V115H292Q317 115 317 137Z" />
<glyph unicode="&#xd1;" glyph-name="Ntilde" horiz-adv-x="533" d="M347 675Q313 675 272 701T225 727Q207 727 207 706V675H72V730Q72 777 94 801T171 825H190Q224 825 265 799T312 773Q330 773 330 794V825H465V765Q465 719 442 697T364 675H347ZM333 642H493V0H343L200
337V0H40V642H190L333 299V642Z" />
<glyph unicode="&#xd2;" glyph-name="Ograve" horiz-adv-x="516" d="M184 642H332Q479 642 479 518V124Q479 0 332 0H184Q37 0 37 124V518Q37 642 184 642ZM304 147V495Q304 517 279 517H237Q212 517 212 495V147Q212 125 237 125H279Q304 125 304 147ZM322 675H188L55
825H225L322 675Z" />
<glyph unicode="&#xd3;" glyph-name="Oacute" horiz-adv-x="516" d="M184 642H332Q479 642 479 518V124Q479 0 332 0H184Q37 0 37 124V518Q37 642 184 642ZM304 147V495Q304 517 279 517H237Q212 517 212 495V147Q212 125 237 125H279Q304 125 304 147ZM462 825L329
675H195L292 825H462Z" />
<glyph unicode="&#xd4;" glyph-name="Ocircumflex" horiz-adv-x="516" d="M184 642H332Q479 642 479 518V124Q479 0 332 0H184Q37 0 37 124V518Q37 642 184 642ZM304 147V495Q304 517 279 517H237Q212 517 212 495V147Q212 125 237 125H279Q304 125 304 147ZM256
744L203 675H46L179 825H333L466 675H309L256 744Z" />
<glyph unicode="&#xd5;" glyph-name="Otilde" horiz-adv-x="516" d="M184 642H332Q479 642 479 518V124Q479 0 332 0H184Q37 0 37 124V518Q37 642 184 642ZM304 147V495Q304 517 279 517H237Q212 517 212 495V147Q212 125 237 125H279Q304 125 304 147ZM194 706V675H59V730Q59
777 81 801T158 825H177Q211 825 252 799T299 773Q317 773 317 794V825H452V765Q452 719 429 697T351 675H334Q300 675 259 701T212 727Q194 727 194 706Z" />
<glyph unicode="&#xd6;" glyph-name="Odieresis" horiz-adv-x="500" d="M184 642H332Q479 642 479 518V124Q479 0 332 0H184Q37 0 37 124V518Q37 642 184 642ZM304 147V495Q304 517 279 517H237Q212 517 212 495V147Q212 125 237 125H279Q304 125 304 147ZM214
805V675H62V805H214ZM454 805V675H302V805H454Z" />
<glyph unicode="&#xd7;" glyph-name="multiply" horiz-adv-x="482" d="M462 435L338 311L462 187L365 90L241 214L117 90L20 187L144 311L20 435L117 532L241 408L365 532L462 435Z" />
<glyph unicode="&#xd8;" glyph-name="Oslash" horiz-adv-x="516" d="M479 518V124Q479 0 332 0H184Q149 0 120 8L104 -20H30L64 40Q37 70 37 124V518Q37 642 184 642H332Q372 642 401 633L418 662H492L455 598Q479 568 479 518ZM202 505V282L314 479V505Q314 527
289 527H227Q202 527 202 505ZM314 137V349L202 152V137Q202 115 227 115H289Q314 115 314 137Z" />
<glyph unicode="&#xd9;" glyph-name="Ugrave" horiz-adv-x="522" d="M307 642H482V124Q482 0 335 0H187Q40 0 40 124V642H215V147Q215 125 240 125H282Q307 125 307 147V642ZM326 675H192L59 825H229L326 675Z" />
<glyph unicode="&#xda;" glyph-name="Uacute" horiz-adv-x="522" d="M307 642H482V124Q482 0 335 0H187Q40 0 40 124V642H215V147Q215 125 240 125H282Q307 125 307 147V642ZM453 825L320 675H186L283 825H453Z" />
<glyph unicode="&#xdb;" glyph-name="Ucircumflex" horiz-adv-x="522" d="M307 642H482V124Q482 0 335 0H187Q40 0 40 124V642H215V147Q215 125 240 125H282Q307 125 307 147V642ZM261 744L208 675H51L184 825H338L471 675H314L261 744Z" />
<glyph unicode="&#xdc;" glyph-name="Udieresis" horiz-adv-x="522" d="M307 642H482V124Q482 0 335 0H187Q40 0 40 124V642H215V147Q215 125 240 125H282Q307 125 307 147V642ZM216 805V675H64V805H216ZM456 805V675H304V805H456Z" />
<glyph unicode="&#xdd;" glyph-name="Yacute" horiz-adv-x="519" d="M352 0H177V208L0 642H179L263 371L341 642H519L352 210V0ZM453 825L320 675H186L283 825H453Z" />
<glyph unicode="&#xde;" glyph-name="Thorn" horiz-adv-x="534" d="M220 526H332Q479 526 479 402V239Q479 115 332 115H220V0H45V642H220V526ZM304 257V384Q304 406 279 406H220V235H279Q304 235 304 257Z" />
<glyph unicode="&#xdf;" glyph-name="germandbls" horiz-adv-x="677" d="M262 163H432V137Q432 116 452 115H470Q495 115 495 137V177Q495 199 470 199H404Q328 199 298 230T267 323V345Q267 402 299 429T404 457Q426 457 426 479V495Q426 517 404 517H245Q220
517 220 495V0H45V518Q45 579 75 610T182 642H473Q611 642 611 526V463Q611 404 586 382T484 359H458Q433 359 433 337V330Q433 308 458 308H518Q665 308 665 184V124Q665 63 635 32T528 0H402Q262 3 262 124V163Z" />
<glyph unicode="&#xe0;" glyph-name="agrave" horiz-adv-x="479" d="M272 499H439V0H269V54Q250 0 181 0H163Q30 0 30 124V375Q30 499 163 499H181Q258 499 272 435V499ZM225 125H242Q269 125 269 155V344Q269 374 242 374H225Q200 374 200 352V147Q200 125 225
125ZM334 532H200L67 682H237L334 532Z" />
<glyph unicode="&#xe1;" glyph-name="aacute" horiz-adv-x="479" d="M272 499H439V0H269V54Q250 0 181 0H163Q30 0 30 124V375Q30 499 163 499H181Q258 499 272 435V499ZM225 125H242Q269 125 269 155V344Q269 374 242 374H225Q200 374 200 352V147Q200 125 225
125ZM443 682L310 532H176L273 682H443Z" />
<glyph unicode="&#xe2;" glyph-name="acircumflex" horiz-adv-x="479" d="M272 499H439V0H269V54Q250 0 181 0H163Q30 0 30 124V375Q30 499 163 499H181Q258 499 272 435V499ZM225 125H242Q269 125 269 155V344Q269 374 242 374H225Q200 374 200 352V147Q200 125
225 125ZM241 601L188 532H31L164 682H318L451 532H294L241 601Z" />
<glyph unicode="&#xe3;" glyph-name="atilde" horiz-adv-x="479" d="M272 499H439V0H269V54Q250 0 181 0H163Q30 0 30 124V375Q30 499 163 499H181Q258 499 272 435V499ZM225 125H242Q269 125 269 155V344Q269 374 242 374H225Q200 374 200 352V147Q200 125 225
125ZM177 563V532H42V587Q42 634 64 658T141 682H160Q194 682 235 656T282 630Q300 630 300 651V682H435V622Q435 576 412 554T334 532H317Q283 532 242 558T195 584Q177 584 177 563Z" />
<glyph unicode="&#xe4;" glyph-name="adieresis" horiz-adv-x="479" d="M294 672H446V542H294V672ZM272 499H439V0H269V54Q250 0 181 0H163Q30 0 30 124V375Q30 499 163 499H181Q258 499 272 435V499ZM225 125H242Q269 125 269 155V344Q269 374 242 374H225Q200
374 200 352V147Q200 125 225 125ZM206 672V542H54V672H206Z" />
<glyph unicode="&#xe5;" glyph-name="aring" horiz-adv-x="479" d="M272 499H439V0H269V54Q250 0 181 0H163Q30 0 30 124V375Q30 499 163 499H181Q258 499 272 435V499ZM225 125H242Q269 125 269 155V344Q269 374 242 374H225Q200 374 200 352V147Q200 125 225
125ZM283 530H197Q95 530 95 619V635Q95 725 197 725H283Q385 725 385 635V619Q385 530 283 530ZM201 634V620Q201 601 221 601H259Q279 601 279 620V634Q279 653 259 653H221Q201 653 201 634Z" />
<glyph unicode="&#xe6;" glyph-name="ae" horiz-adv-x="736" d="M481 499H543Q690 499 690 375V201H439V142Q439 120 464 120H500Q525 120 525 142V167H690V124Q690 0 543 0H480Q383 0 349 56Q335 30 304 15T235 0H168Q35 0 35 124V208L274 306V344Q274 374 247
374H230Q205 374 205 352V309H35V375Q35 499 168 499H236Q273 499 304 484T350 443Q384 499 481 499ZM230 125H247Q274 125 274 155V203L205 174V147Q205 125 230 125ZM439 300H525V357Q525 379 500 379H464Q439 379 439 357V300Z" />
<glyph unicode="&#xe7;" glyph-name="ccedilla" horiz-adv-x="451" d="M431 306H267V352Q267 374 242 374H225Q200 374 200 352V147Q200 125 225 125H242Q267 125 267 147V193H431V124Q431 0 284 0H177Q30 0 30 124V375Q30 499 177 499H284Q431 499 431 375V306ZM156
-123V-46H316V-136Q316 -260 169 -260H78V-145H131Q156 -145 156 -123Z" />
<glyph unicode="&#xe8;" glyph-name="egrave" horiz-adv-x="471" d="M177 499H299Q446 499 446 375V205H191V139Q191 117 216 117H260Q285 117 285 141V169H446V124Q446 0 299 0H177Q30 0 30 124V375Q30 499 177 499ZM191 297H285V360Q285 382 260 382H216Q191
382 191 360V297ZM293 532H159L26 682H196L293 532Z" />
<glyph unicode="&#xe9;" glyph-name="eacute" horiz-adv-x="471" d="M177 499H299Q446 499 446 375V205H191V139Q191 117 216 117H260Q285 117 285 141V169H446V124Q446 0 299 0H177Q30 0 30 124V375Q30 499 177 499ZM191 297H285V360Q285 382 260 382H216Q191
382 191 360V297ZM437 682L304 532H170L267 682H437Z" />
<glyph unicode="&#xea;" glyph-name="ecircumflex" horiz-adv-x="471" d="M177 499H299Q446 499 446 375V205H191V139Q191 117 216 117H260Q285 117 285 141V169H446V124Q446 0 299 0H177Q30 0 30 124V375Q30 499 177 499ZM191 297H285V360Q285 382 260 382H216Q191
382 191 360V297ZM240 601L187 532H30L163 682H317L450 532H293L240 601Z" />
<glyph unicode="&#xeb;" glyph-name="edieresis" horiz-adv-x="471" d="M177 499H299Q446 499 446 375V205H191V139Q191 117 216 117H260Q285 117 285 141V169H446V124Q446 0 299 0H177Q30 0 30 124V375Q30 499 177 499ZM191 297H285V360Q285 382 260 382H216Q191
382 191 360V297ZM194 672V542H42V672H194ZM434 672V542H282V672H434Z" />
<glyph unicode="&#xec;" glyph-name="igrave" horiz-adv-x="250" d="M98 682L195 532H61L-72 682H98ZM210 0H40V499H210V0Z" />
<glyph unicode="&#xed;" glyph-name="iacute" horiz-adv-x="250" d="M54 532L151 682H321L188 532H54ZM210 0H40V499H210V0Z" />
<glyph unicode="&#xee;" glyph-name="icircumflex" horiz-adv-x="250" d="M-87 532L46 682H200L333 532H176L123 601L70 532H-87ZM210 0H40V499H210V0Z" />
<glyph unicode="&#xef;" glyph-name="idieresis" horiz-adv-x="250" d="M166 542V672H318V542H166ZM-74 542V672H78V542H-74ZM210 0H40V499H210V0Z" />
<glyph unicode="&#xf0;" glyph-name="eth" horiz-adv-x="494" d="M457 307V124Q457 0 310 0H177Q30 0 30 124V303Q30 427 177 427H266Q252 462 231 491L115 456V540L175 558Q136 596 67 642H302Q322 626 340 608L427 634V550L392 540Q457 434 457 307ZM290 147V312H225Q200
312 200 290V147Q200 125 225 125H265Q290 125 290 147Z" />
<glyph unicode="&#xf1;" glyph-name="ntilde" horiz-adv-x="484" d="M298 499H316Q449 499 449 375V0H279V352Q279 374 254 374H237Q210 374 210 344V0H40V499H207V435Q221 499 298 499ZM172 563V532H37V587Q37 634 59 658T136 682H155Q189 682 230 656T277 630Q295
630 295 651V682H430V622Q430 576 407 554T329 532H312Q278 532 237 558T190 584Q172 584 172 563Z" />
<glyph unicode="&#xf2;" glyph-name="ograve" horiz-adv-x="481" d="M177 499H304Q380 499 413 467T446 375V124Q446 64 413 32T304 0H177Q101 0 68 32T35 124V375Q35 435 68 467T177 499ZM279 140V359Q279 381 254 381H227Q202 381 202 359V140Q202 118 227 118H254Q279
118 279 140ZM303 532H169L36 682H206L303 532Z" />
<glyph unicode="&#xf3;" glyph-name="oacute" horiz-adv-x="481" d="M177 499H304Q380 499 413 467T446 375V124Q446 64 413 32T304 0H177Q101 0 68 32T35 124V375Q35 435 68 467T177 499ZM279 140V359Q279 381 254 381H227Q202 381 202 359V140Q202 118 227 118H254Q279
118 279 140ZM447 682L314 532H180L277 682H447Z" />
<glyph unicode="&#xf4;" glyph-name="ocircumflex" horiz-adv-x="481" d="M177 499H304Q380 499 413 467T446 375V124Q446 64 413 32T304 0H177Q101 0 68 32T35 124V375Q35 435 68 467T177 499ZM279 140V359Q279 381 254 381H227Q202 381 202 359V140Q202 118
227 118H254Q279 118 279 140ZM241 601L188 532H31L164 682H318L451 532H294L241 601Z" />
<glyph unicode="&#xf5;" glyph-name="otilde" horiz-adv-x="481" d="M177 499H304Q380 499 413 467T446 375V124Q446 64 413 32T304 0H177Q101 0 68 32T35 124V375Q35 435 68 467T177 499ZM279 140V359Q279 381 254 381H227Q202 381 202 359V140Q202 118 227 118H254Q279
118 279 140ZM175 563V532H40V587Q40 634 62 658T139 682H158Q192 682 233 656T280 630Q298 630 298 651V682H433V622Q433 576 410 554T332 532H315Q281 532 240 558T193 584Q175 584 175 563Z" />
<glyph unicode="&#xf6;" glyph-name="odieresis" horiz-adv-x="481" d="M177 499H304Q380 499 413 467T446 375V124Q446 64 413 32T304 0H177Q101 0 68 32T35 124V375Q35 435 68 467T177 499ZM279 140V359Q279 381 254 381H227Q202 381 202 359V140Q202 118 227
118H254Q279 118 279 140ZM197 672V542H45V672H197ZM437 672V542H285V672H437Z" />
<glyph unicode="&#xf7;" glyph-name="divide" horiz-adv-x="533" d="M185 217H348V102H185V217ZM185 537H348V422H185V537ZM25 257V382H508V257H25Z" />
<glyph unicode="&#xf8;" glyph-name="oslash" horiz-adv-x="481" d="M446 375V124Q446 64 413 32T304 0H177Q141 0 117 7L99 -20H25L63 37Q35 66 35 124V375Q35 435 68 467T177 499H304Q341 499 365 492L383 519H457L419 461Q446 431 446 375ZM197 364V239L284
369Q281 386 259 386H222Q197 386 197 364ZM284 135V259L198 128Q201 113 222 113H259Q284 113 284 135Z" />
<glyph unicode="&#xf9;" glyph-name="ugrave" horiz-adv-x="484" d="M274 499H444V0H277V64Q263 0 186 0H168Q35 0 35 124V499H205V147Q205 125 230 125H247Q274 125 274 155V499ZM312 532H178L45 682H215L312 532Z" />
<glyph unicode="&#xfa;" glyph-name="uacute" horiz-adv-x="484" d="M274 499H444V0H277V64Q263 0 186 0H168Q35 0 35 124V499H205V147Q205 125 230 125H247Q274 125 274 155V499ZM430 682L297 532H163L260 682H430Z" />
<glyph unicode="&#xfb;" glyph-name="ucircumflex" horiz-adv-x="484" d="M274 499H444V0H277V64Q263 0 186 0H168Q35 0 35 124V499H205V147Q205 125 230 125H247Q274 125 274 155V499ZM241 601L188 532H31L164 682H318L451 532H294L241 601Z" />
<glyph unicode="&#xfc;" glyph-name="udieresis" horiz-adv-x="500" d="M274 499H444V0H277V64Q263 0 186 0H168Q35 0 35 124V499H205V147Q205 125 230 125H247Q274 125 274 155V499ZM195 672V542H43V672H195ZM435 672V542H283V672H435Z" />
<glyph unicode="&#xfd;" glyph-name="yacute" horiz-adv-x="464" d="M166 532L263 682H433L300 532H166ZM150 -129H66V-6H140Q164 -6 178 2T202 40H137L0 499H178L239 195L293 499H464L339 10Q318 -59 275 -94T150 -129Z" />
<glyph unicode="&#xfe;" glyph-name="thorn" horiz-adv-x="489" d="M292 499H310Q443 499 443 375V124Q443 0 310 0H292Q223 0 204 54V-129H34V669H201V435Q215 499 292 499ZM273 147V352Q273 374 248 374H231Q204 374 204 344V155Q204 125 231 125H248Q273 125 273 147Z" />
<glyph unicode="&#xff;" glyph-name="ydieresis" horiz-adv-x="500" d="M150 -129H66V-6H140Q164 -6 178 2T202 40H137L0 499H178L239 195L293 499H464L339 10Q318 -59 275 -94T150 -129ZM278 542V672H430V542H278ZM38 542V672H190V542H38Z" />
<glyph unicode="&#x2013;" glyph-name="endash" horiz-adv-x="607" d="M46 245V360H455V245H46Z" />
<glyph unicode="&#x2014;" glyph-name="emdash" horiz-adv-x="749" d="M46 245V360H694V245H46Z" />
<glyph unicode="&#x2018;" glyph-name="quoteleft" horiz-adv-x="254" d="M214 329H40V419L167 642H214V329Z" />
<glyph unicode="&#x2019;" glyph-name="quoteright" horiz-adv-x="254" d="M40 642H214V552L87 329H40V642Z" />
<glyph unicode="&#x201a;" glyph-name="quotesinglbase" horiz-adv-x="252" d="M40 164H212V74L92 -149H40V164Z" />
<glyph unicode="&#x201c;" glyph-name="quotedblleft" horiz-adv-x="464" d="M212 329H40V419L167 642H212V329ZM424 329H252V419L379 642H424V329Z" />
<glyph unicode="&#x201d;" glyph-name="quotedblright" horiz-adv-x="464" d="M252 642H424V552L297 329H252V642ZM40 642H212V552L85 329H40V642Z" />
<glyph unicode="&#x201e;" glyph-name="quotedblbase" horiz-adv-x="464" d="M252 164H424V74L297 -149H252V164ZM40 164H212V74L85 -149H40V164Z" />
<glyph unicode="&#x2022;" glyph-name="bullet" horiz-adv-x="396" d="M50 260T50 321T93 425T198 469T302 426T346 321T303 217T198 173T94 216Z" />
<glyph unicode="&#x2039;" glyph-name="guilsinglleft" horiz-adv-x="299" d="M125 96L15 249L125 400H294L187 249L294 96H125Z" />
<glyph unicode="&#x203a;" glyph-name="guilsinglright" horiz-adv-x="299" d="M294 249L184 96H15L122 249L15 400H184L294 249Z" />
</font>
</defs>
</svg>
